Ссылка на приватное зеркало всего за 1$. Внимание количество ограничено!!!

OK

1+1

iTunes

мы

OK

1

WEB-DLRip

Джокер

Пифагор

Ведьмак / The Witcher сериал

iTunes

ПШазам

ОК

Оно 2

iTunes

30
pack

Вам бонус

ВАЖНО

!!Акция!!

Alien_RageХит недели

RePack

Resident Evil 21

ИГРА 18+

pack

RePack

jed

RePack

fifa19

RePack

Assassins Creed: Odyssey

RePack

NEED FOR SPEED™ PAYBACK

4 сезон

9 сезон

Бесстыжие 9 сезон

Все сериалы

все сериалы на PB.wtf

RePack

FAR CRY 5
  

Андрей Журавлев. Мастер-класс — Повышение резкости [2014 г., Обучающие видео-уроки] Русский pb.wtf

Андрей Журавлев. Мастер-класс — Повышение резкости через торрент pb.wtf

Размер: 741 MB | Добавлен: 4 года назад | Торрент скачан:18 раз
Скачать  

13-01-2016 06:12 Андрей Журавлев. Мастер-класс — Повышение резкости Скачать торрент  

Андрей Журавлев. Мастер-класс — Повышение резкости
Год выпуска: 2014
Автор (режиссер): Андрей Журавлев
Страна: Россия
Жанр: Обучающие видео-уроки
Язык: Русский
Перевод: Не требуется
Продолжительность: 03:33:12

Описание:
Повышение резкости как велосипед: придумано огромное количество конструкций, бери и пользуйся, но каждый пытается сконструировать что-то свое. При этом ехать можно на любом велосипеде, главное научиться это делать.

Мы рассмотрим почему необходимо повышать резкость. Какие принципы лежат в основе такого повышения. Какие существуют приемы повышения резкости и каким они приводят проблемам. И, конечно, как эти проблемы побороть.
Андрей Журавлев – один из лучших специалистов России по цветокоррекции и допечатной подготовке. Его глубокие знания в Adobe Photoshop, удивительное умение объяснить сложные вещи простым и понятным языком создали для Андрея уникальные преимущества. "Замечательный преподаватель", "Настоящий профессионал" и даже "Маргулис всея Руси" – это одни из многих ярких эпитетов наших учащихся с которыми они остаются после обучения у Андрея. Учащиеся ценят его умение показать проблему под новым ракурсом, и затем разложить ее решение, сдабривая рассказ искромётным юмором. А ведь смех, как ничто иное, снимает напряжение от длительной умственной работы и способствует лучшему восприятию обширного материала.
Качество видео: PCRec
Формат: MP4
Видео кодек: MPEG4
Аудио кодек: AAC
Видео: MPEG-4, 1232х768 (16:10), 25.000 fps, 293 Kbps
Аудио#1: AAC LC, 44.1 KHz, 2 ch, 152.0 Kbps
Видео
Идентификатор : 1
Формат : MPEG-4 Visual
Профиль формата : Simple@L1
Параметр BVOP формата : Нет
Параметр QPel формата : Нет
Параметр GMC формата : Без точки перехода
Параметр матрицы формата : Default (H.263)
Идентификатор кодека : 20
Продолжительность : 3 ч. 33 м.
Битрейт : 293 Кбит/сек
Ширина : 1232 пикселя
Высота : 768 пикселей
Соотношение сторон : 16:10
Режим частоты кадров : Постоянный
Частота кадров : 25,000 кадров/сек
Цветовое пространство : YUV
Субдискретизация насыщенности : 4:2:0
Битовая глубина : 8 бит
Тип развёртки : Прогрессивная
Метод сжатия : С потерями
Бит/(Пиксели*Кадры) : 0.012
Размер потока : 448 Мбайт (65%)
Библиотека кодирования : Lavc52.72.2

Аудио
Идентификатор : 2
Формат : AAC
Формат/Информация : Advanced Audio Codec
Профиль формата : LC
Идентификатор кодека : 40
Продолжительность : 3 ч. 33 м.
Вид битрейта : Переменный
Битрейт : 152 Кбит/сек
Каналы : 2 канала
Расположение каналов : Front: L R
Частота : 44,1 КГц
Частота кадров : 43,066 кадра/сек (1024 spf)
Метод сжатия : С потерями
Размер потока : 232 Мбайт (34%)





скриншот  скриншот  скриншот  скриншот  
pb.wtf



Скачать Андрей Журавлев. Мастер-класс — Повышение резкости через торрент http://img11.nnm.me/0/5/5/5/7/f132ce3906da63d82bd26771d98.jpg Скачать фильм Андрей Журавлев. Мастер-класс — Повышение резкости [2014 г., Обучающие видео-уроки] Русскийчерез торрент бесплантно в хорошем качестве Описание: Повышение резкости как велосипед: придумано огромное количество конструкций, бери и пользуйся, но каждый пытается сконструировать ... 9.8 10 5
Info! Золотая раздача, скачанное не засчитывается.
Торрент: Зарегистрирован [2016-01-13 06:12] · скачан: 18 раз
Статус: √ проверено
Размер: 741 MB
Как cкачать? Как скачать Андрей Журавлев. Мастер-класс — Повышение резкости через торрент | qTorrent

28-11-2019 20:33  

Отключить всю рекламу на сайте

    Дорогой пользователь! Огромная просьба, поблагодарите релизера, оцените раздачу и оставьте свои комментарий, если Вы скачали Андрей Журавлев. Мастер-класс — Повышение резкости через торрент бесплатно! Внесите свою лепту в развитие PiratBit!
    Комментировать посты могут только пользователи прошедшие не сложную регистрацию
    Показать сообщения:    

    Андрей Журавлев. Мастер-класс — Повышение резкости через торрент
    Скачать бесплатно Андрей Журавлев. Мастер-класс — Повышение резкости
    Андрей Журавлев. Мастер-класс — Повышение резкости скачать торрент
    Андрей Журавлев. Мастер-класс — Повышение резкости смотреть онлайн
    Cкачать фильм Андрей Журавлев. Мастер-класс — Повышение резкости бесплатно
    Андрей Журавлев. Мастер-класс — Повышение резкости скачать торрент в хорошем качестве
    Андрей Журавлев. Мастер-класс — Повышение резкости смотреть онлайн бесплатно в хорошем качестве


    Вы не можете начинать темы
    Вы не можете отвечать на сообщения
    Вы не можете редактировать свои сообщения
    Вы не можете удалять свои сообщения
    Вы не можете голосовать в опросах
    Вы не можете прикреплять файлы к сообщениям
    Вы можете скачивать файлы