Ссылка на приватное зеркало всего за 1$. Внимание количество ограничено!!!

OK

1+1

iTunes

мы

OK

1

WEB-DLRip

Джокер

Пифагор

Ведьмак / The Witcher сериал

iTunes

ПШазам

ОК

Оно 2

iTunes

30
pack

Вам бонус

ВАЖНО

!!Акция!!

Alien_RageХит недели

RePack

Resident Evil 21

ИГРА 18+

pack

RePack

jed

RePack

fifa19

RePack

Assassins Creed: Odyssey

RePack

NEED FOR SPEED™ PAYBACK

4 сезон

9 сезон

Бесстыжие 9 сезон

Все сериалы

все сериалы на PB.wtf

RePack

FAR CRY 5
  

Сливки Хакни / Hackney's Finest (Крис Бочар) [2014, боевик, комедия, криминал, DVDRip, Любительский двухголосый [Parovoz Production] pb.wtf

Сливки Хакни через торрент pb.wtf

Размер: 1.37 GB | Добавлен: 4 года назад | Торрент скачан:120 раз
Скачать  

18-01-2016 19:19 Сливки Хакни Скачать торрент  


Сливки Хакни / Hackney's Finest
««Just your ordinary decent criminals»»

ИНФОРМАЦИЯ:
Год выпуска:2014
Страна: Великобритания, Франция
Жанр: боевик, комедия, криминал
Продолжительность: 01:25:54
Перевод: Любительский двухголосый [Parovoz Production]
Режиссер: Крис Бочар

В Ролях:


Nathanael Wiseman (Sirus), Эрин Оллдридж (Priestly), Энок Фрост (Tony), Марлон Ллойд Аллен (B), Раджан Шарма (Asif), Ниржа Наик (Pari), Малкольм Томлинсон (Terence), Шон Кронин (Delski), Жанетт Рурк (Jane), Кристофер Дингли (Boris), Катарина Геллин (Amanda), Кулвиндер Гир (Tilbury taxi driver)

Описание:
Мелкий наркодилер оказывается в большой беде, когда продажный коп пытается украсть партию, предназначенную для валлийско-ямайской группировки.

  • Мировая премьера:14 июня 2014

    ТЕХ.ДАННЫЕ:
    Качество: DVDRip
    Формат: AVI
    Видео: XviD, 720x304 (2.35:1), 1797 kbps, 25 fps, 0,329 bpp
    Аудио: AC3 / 2.0 / 48 kHz / 384 kbps / 16 bit


    General
    Complete name : D:\Торенты\7liVk1.HakN1.2014.L2.DVDRip.1400MB.avi
    Format : AVI
    Format/Info : Audio Video Interleave
    File size : 1.37 GiB
    Duration : 1h 25mn
    Overall bit rate : 2 281 Kbps
    Writing application : VirtualDubMod 1.5.10.3 | www.virtualdub-fr.org || (build 2550/release)
    Writing library : VirtualDubMod build 2550/release

    Video
    ID : 0
    Format : MPEG-4 Visual
    Format profile : Advanced Simple@L5
    Format settings, BVOP : 2
    Format settings, QPel : No
    Format settings, GMC : No warppoints
    Format settings, Matrix : Default (MPEG)
    Codec ID : XVID
    Codec ID/Hint : XviD
    Duration : 1h 25mn
    Bit rate : 1 798 Kbps
    Width : 720 pixels
    Height : 304 pixels
    Display aspect ratio : 2.35:1
    Frame rate : 25.000 fps
    Color space : YUV
    Chroma subsampling : 4:2:0
    Bit depth : 8 bits
    Scan type : Progressive
    Compression mode : Lossy
    Bits/(Pixel*Frame) : 0.329
    Stream size : 1.08 GiB (79%)
    Writing library : XviD 1.2.1 (UTC 2008-12-04)

    Audio
    ID : 1
    Format : AC-3
    Format/Info : Audio Coding 3
    Mode extension : CM (complete main)
    Codec ID : 2000
    Duration : 1h 25mn
    Bit rate mode : Constant
    Bit rate : 384 Kbps
    Channel(s) : 2 channels
    Channel positions : Front: L R
    Sampling rate : 48.0 KHz
    Bit depth : 16 bits
    Compression mode : Lossy
    Stream size : 236 MiB (17%)
    Alignment : Split accross interleaves
    Скриншоты:

    © Оформление by .::Ворон::.
    pb.wtf
    !Ворон писал(а):

    Внимание, в релизе присутствует реклама.
    Реклама в новых релизах Кино?



  • Скачать Сливки Хакни через торрент http://pic.kartinco.top/images/6/ordi9.jpg Скачать фильм Сливки Хакни через торрент бесплантно в хорошем качестве Описание: Мелкий наркодилер оказывается в большой беде, когда продажный коп пытается украсть партию, предназначенную для валлийско-ямайской ... 9.5 10 2
    Торрент: Зарегистрирован [2016-01-18 19:19] · скачан: 120 раз
    Статус: T временная
    Размер: 1.37 GB
    Как cкачать? Как скачать Сливки Хакни через торрент | qTorrent

    28-11-2019 20:33  

    Отключить всю рекламу на сайте

      Дорогой пользователь! Огромная просьба, поблагодарите релизера, оцените раздачу и оставьте свои комментарий, если Вы скачали Сливки Хакни через торрент бесплатно! Внесите свою лепту в развитие PiratBit!
      Комментировать посты могут только пользователи прошедшие не сложную регистрацию
      Показать сообщения:    

      Сливки Хакни через торрент
      Скачать бесплатно Сливки Хакни
      Сливки Хакни скачать торрент
      Сливки Хакни смотреть онлайн
      Cкачать фильм Сливки Хакни бесплатно
      Сливки Хакни скачать торрент в хорошем качестве
      Сливки Хакни смотреть онлайн бесплатно в хорошем качестве


      Вы не можете начинать темы
      Вы не можете отвечать на сообщения
      Вы не можете редактировать свои сообщения
      Вы не можете удалять свои сообщения
      Вы не можете голосовать в опросах
      Вы не можете прикреплять файлы к сообщениям
      Вы можете скачивать файлы