новый адрес
Ссылка на приватное зеркало всего за 1$. Внимание количество ограничено!!!

iTunes

1+1

iTunes

мы

WEB-DL

1

iTunes

Чернобыль

iTunes

Ральф против интернета

Лицензия

ПШазам

Лицензия

Оно 2

Лицензия

30
pack

Вам бонус

ВАЖНО

!!Акция!!

Alien_RageХит недели

RePack

Resident Evil 21

ИГРА 18+

pack

RePack

jed

!!Акция!!

Alien_Rage

RePack

fifa19

RePack

Assassins Creed: Odyssey

RePack

NEED FOR SPEED™ PAYBACK

3 сезон

9 сезон

Бесстыжие 9 сезон

Все сериалы

все сериалы на PB.wtf

RePack

FAR CRY 5
Ребята, катастрофически не хватает 1900р. для оплаты серверов за Октябрь (всвязи с блокировками трафик упал в 3 раза), 1-2р., выручайте.
  

Бигглз: Приключения во времени / Biggles: Adventures In Time (Джон Хаф) [1986, фантастика, приключения, семейный, военный, BDRip AVC by msltel] MVO, AVO pb.wtf

Бигглз: Приключения во времени через торрент pb.wtf

Размер: 2.38 GB | Добавлен: 3 года 10 мес. назад | Торрент скачан:27 раз
Скачать  

25-01-2016 13:23 Бигглз: Приключения во времени Скачать торрент  

Название: Бигглз: Приключения во времени
Оригинальное название: Biggles: Adventures In Time
Год выпуска: 1986
Страна: США, Великобритания
Жанр: фантастика, приключения, семейный, военный
Продолжительность: 01:32:20
Перевод: профессиональный многоголосый, авторский

Режиссёр: Джон Хаф

В ролях: Нил Диксон, Алекс Хайд-Уайт, Фиона Хатчинсон, Питер Кушинг, Уильям Хуткинс, Алан Полонски, Джеймс Сэксон, Дэниэл Флинн

Описание: Что делать, если вы оказались временным близнецом прославленного аса Первой мировой войны, и вас постоянно в самые неожиданные моменты отбрасывает в 1917 год и возвращает в настоящее? Вам ничего не остаётся, как возложить на себя сверхзадачу помочь английским войскам уничтожить секретное оружие немцев в 1917-м и спасать себя и Бигглза от полиции в настоящем...



Качество: BDRip AVC Сравнение с исходником
Формат: MKV
Видео: MPEG-4 AVC, 3143 Кбит/с, 1024x552, 24 кадра/с
Аудио 1: русский, AC3, 192 kbps, 2 ch, 48 kHz [профессиональный многоголосый, DVD, R5]
Аудио 2: русский, AC3, 160 kbps, 2 ch, 48 kHz [авторский, Андрей Гаврилов]
Аудио 3: английский, AC3, 192 kbps, 2 ch, 48 kHz [оригинал]
Общее
Уникальный идентификатор : 180510107981811788976636726404967568677 (0x87CCFB72F1F83EEB99B6D190F7F41525)
Полное имя : D:\Video\Бигглз.1986.BDRip.AVC.mkv
Формат : Matroska
Версия формата : Version 4 / Version 2
Размер файла : 2,38 Гбайт
Продолжительность : 1 ч. 32 м.
Общий поток : 3689 Кбит/сек
Дата кодирования : UTC 2016-01-24 12:01:01
Программа кодирования : mkvmerge v8.2.0 ('World of Adventure') 64bit
Библиотека кодирования : libebml v1.3.1 + libmatroska v1.4.2

Видео
Идентификатор : 1
Формат : AVC
Формат/Информация : Advanced Video Codec
Профиль формата : High@L4.1
Параметр CABAC формата : Да
Параметр ReFrames формата : 9 кадров
Идентификатор кодека : V_MPEG4/ISO/AVC
Продолжительность : 1 ч. 32 м.
Битрейт : 3143 Кбит/сек
Ширина : 1024 пикселя
Высота : 552 пикселя
Соотношение сторон : 1,85:1
Режим частоты кадров : Постоянный
Частота кадров : 24,000 кадра/сек
Цветовое пространство : YUV
Субдискретизация насыщенности : 4:2:0
Битовая глубина : 8 бит
Тип развёртки : Прогрессивная
Бит/(Пиксели*Кадры) : 0.232
Размер потока : 2,03 Гбайт (85%)
Библиотека кодирования : x264 core 146 r2538 121396c
Настройки программы : cabac=1 / ref=9 / deblock=1:-3:-3 / analyse=0x3:0x113 / me=umh / subme=10 / psy=1 / psy_rd=1.00:0.15 / mixed_ref=1 / me_range=32 / chroma_me=1 / trellis=2 / 8x8dct=1 / cqm=0 / deadzone=21,11 / fast_pskip=1 / chroma_qp_offset=-3 / threads=6 / lookahead_threads=1 / sliced_threads=0 / nr=0 / decimate=1 / interlaced=0 / bluray_compat=0 / constrained_intra=0 / bframes=10 / b_pyramid=2 / b_adapt=2 / b_bias=0 / direct=1 / weightb=1 / open_gop=0 / weightp=2 / keyint=230 / keyint_min=23 / scenecut=40 / intra_refresh=0 / rc_lookahead=40 / rc=crf / mbtree=0 / crf=22.0 / qcomp=0.60 / qpmin=0 / qpmax=69 / qpstep=4 / vbv_maxrate=40000 / vbv_bufsize=50000 / crf_max=0.0 / nal_hrd=none / filler=0 / ip_ratio=1.40 / pb_ratio=1.30 / aq=1:1.00
Язык : English
Default : Да
Forced : Нет

Аудио #1
Идентификатор : 2
Формат : AC-3
Формат/Информация : Audio Coding 3
Расширение режима : CM (complete main)
Параметр Endianness формата : Big
Идентификатор кодека : A_AC3
Продолжительность : 1 ч. 32 м.
Вид битрейта : Постоянный
Битрейт : 192 Кбит/сек
Каналы : 2 канала
Расположение каналов : Front: L R
Частота : 48,0 КГц
Частота кадров : 31,250 кадров/сек (1536 spf)
Метод сжатия : С потерями
Размер потока : 127 Мбайт (5%)
Заголовок : MVO (DVD, R5)
Язык : Russian
Default : Да
Forced : Нет

Аудио #2
Идентификатор : 3
Формат : AC-3
Формат/Информация : Audio Coding 3
Расширение режима : CM (complete main)
Параметр Endianness формата : Big
Идентификатор кодека : A_AC3
Продолжительность : 1 ч. 32 м.
Вид битрейта : Постоянный
Битрейт : 160 Кбит/сек
Каналы : 2 канала
Расположение каналов : Front: L R
Частота : 48,0 КГц
Частота кадров : 31,250 кадров/сек (1536 spf)
Метод сжатия : С потерями
Размер потока : 106 Мбайт (4%)
Заголовок : AVO (Андрей Гаврилов)
Язык : Russian
Default : Нет
Forced : Нет

Аудио #3
Идентификатор : 4
Формат : AC-3
Формат/Информация : Audio Coding 3
Расширение режима : CM (complete main)
Параметр Endianness формата : Big
Идентификатор кодека : A_AC3
Продолжительность : 1 ч. 32 м.
Вид битрейта : Постоянный
Битрейт : 192 Кбит/сек
Каналы : 2 канала
Расположение каналов : Front: L R
Частота : 48,0 КГц
Частота кадров : 31,250 кадров/сек (1536 spf)
Метод сжатия : С потерями
Размер потока : 127 Мбайт (5%)
Заголовок : Original
Язык : English
Default : Нет
Forced : Нет
pb.wtf



Скачать Бигглз: Приключения во времени через торрент http://s018.radikal.ru/i502/1601/2f/f38d87990932.png Скачать фильм Бигглз: Приключения во времени через торрент бесплантно в хорошем качестве Описание: Что делать, если вы оказались временным близнецом прославленного аса Первой мировой войны, и вас постоянно в самые неожиданные ... 10 10 2
Торрент: Зарегистрирован [2016-01-25 13:23] · скачан: 27 раз
Статус: √ проверено
Размер: 2.38 GB
Как cкачать? Как скачать Бигглз: Приключения во времени через торрент | qTorrent

% Раздел Тема Автор DL S | L
Фильмы [HD 720p, 1080p] (Хороший звук DUB, MVO) [ 11.27 GB ] Бигглз: во времени / Biggles: Adventures In Time [1986 военный BDRip 1080p by msltel] MVO AVO msltel Скачать
1 | 0
Фильмы [HD 720p, 1080p] (Хороший звук DUB, MVO) [ 4.43 GB ] Бигглз: во времени / Biggles: Adventures In Time [1986 военный BDRip 720p by msltel] MVO AVO msltel Скачать
1 | 0
Фильмы до 2000 г. [ 1.48 GB ] Бигглз: во времени / Biggles: Adventures in Time [1986 военный DVDRip] MVO + AVO [Андрей Гаврилов] killermax2013 Скачать
1 | 0

28-11-2019 20:33  

Отключить всю рекламу на сайте

    Дорогой пользователь! Огромная просьба, поблагодарите релизера, оцените раздачу и оставьте свои комментарий, если Вы скачали Бигглз: Приключения во времени через торрент бесплатно! Внесите свою лепту в развитие PiratBit!
    Комментировать посты могут только пользователи прошедшие не сложную регистрацию
    Показать сообщения:    

    Бигглз: Приключения во времени через торрент
    Скачать бесплатно Бигглз: Приключения во времени
    Бигглз: Приключения во времени скачать торрент
    Бигглз: Приключения во времени смотреть онлайн
    Cкачать фильм Бигглз: Приключения во времени бесплатно
    Бигглз: Приключения во времени скачать торрент в хорошем качестве
    Бигглз: Приключения во времени смотреть онлайн бесплатно в хорошем качестве


    Вы не можете начинать темы
    Вы не можете отвечать на сообщения
    Вы не можете редактировать свои сообщения
    Вы не можете удалять свои сообщения
    Вы не можете голосовать в опросах
    Вы не можете прикреплять файлы к сообщениям
    Вы можете скачивать файлы