Всегда рабочее зеркало без VPN и Proxy просто перед .vidak.icu напиши любое слово или цифру, Пример http://rtnk.vidak.icu

MVO

2 сезон

2 сезон

1

1 сезон

iTunes

2 сезон

13

1 сезон

Распродажа

pack

Рекомендуем

Пиратка

30

ВАЖНО

RePack

MK11

RePack

jed

RePack

fifa19

RePack

RDR2

RePack

NEED FOR SPEED™ PAYBACK

Кинопоиск HD

6 сезон

 Острые козырьки 6 сезон

Все сериалы

все сериалы на PB.wtf

RePack

FAR CRY 5

Anonymous, нам критически не хватает 5601 руб. на оплату серверов и переферии за Апрель, помоги нам пожалуйста, вся надежда только на тебя. В благодарность мы отключим тебе всю рекламу на сайте!

×
  
Magnet ссылка

Мост / Die Brucke (Бернхард Викки) [1959, драма, военный, BDRip 720p by msltel] AVO pb.wtf

Мост через торрент pb.wtf

Размер: 4.4 GB | Добавлен: 6 лет 3 мес. назад | Торрент скачан:2 раза
Смотреть онлайн Мост | Скачать    Ребята, помогите собрать деньги на оплату серверов!!!

27-01-2016 10:15 Мост Скачать торрент  

Название: Мост
Оригинальное название: Die Brucke
Год выпуска: 1959
Страна: Германия (ФРГ)
Жанр: драма, военный
Продолжительность: 01:43:15
Перевод: авторский

Режиссёр: Бернхард Викки

В ролях: Фолькер Бонет, Фритц Веппер, Михаэль Хинц, Франк Глаубрехт, Карл Михаэль Бальцер, Фолькер Лехтенбринк, Альфонс Теубер, Ира Льюис, Эмиль Ханек, Бак Генри, Хейни Гёбель, Питер Фернандез, Йоханнес Бузалски, Хорст Бергманн, Инге Бенц

Описание: События в фильме происходят в маленьком немецком городке в последние дни Второй мировой войны. Гитлеровская армия терпит поражение за поражением, скоро в городе могут оказаться американские войска. В такой ситуации нацисты идут на крайние меры, пополняя свои резервы школьниками, взятыми прямо из-за парт. Они призывают и семерых друзей-одноклассников, которые с восторгом воспринимают возможность отличиться. Однако голос разума подсказывает начальству, что лучше этих юнцов не бросать в мясорубку, поэтому их оставляют охранять мост, не имеющий никакого стратегического значения. Впрочем, вскоре так выходит, что они остаются последним препятствием на пути американских войск... Фильм снят по роману Манфреда Грегора.



Качество: BDRip 720p Сравнение с исходником
Формат: MKV
Видео: MPEG-4 AVC, 5715 Кбит/с, 988x720, 23,976 кадра/с
Аудио 1: русский, AC3, 192 kbps, 1 ch, 48 kHz [авторский, Юрий Живов]
Аудио 2: немецкий, AC3, 192 kbps, 1 ch, 48 kHz [оригинал]
Субтитры: английские
Общее
Уникальный идентификатор : 241233269917935339626615132283082175665 (0xB57BD67AD4879E4DB34DAF43D664F4B1)
Полное имя : D:\Video\Мост.1959.BDRip.720p.mkv
Формат : Matroska
Версия формата : Version 4 / Version 2
Размер файла : 4,40 Гбайт
Продолжительность : 1 ч. 43 м.
Общий поток : 6102 Кбит/сек
Дата кодирования : UTC 2016-01-27 07:23:54
Программа кодирования : mkvmerge v8.2.0 ('World of Adventure') 64bit
Библиотека кодирования : libebml v1.3.1 + libmatroska v1.4.2

Видео
Идентификатор : 1
Формат : AVC
Формат/Информация : Advanced Video Codec
Профиль формата : High@L4.1
Параметр CABAC формата : Да
Параметр ReFrames формата : 9 кадров
Идентификатор кодека : V_MPEG4/ISO/AVC
Продолжительность : 1 ч. 43 м.
Битрейт : 5715 Кбит/сек
Ширина : 988 пикселей
Высота : 720 пикселей
Соотношение сторон : 1,372
Режим частоты кадров : Постоянный
Частота кадров : 23,976 (24000/1001) кадра/сек
Цветовое пространство : YUV
Субдискретизация насыщенности : 4:2:0
Битовая глубина : 8 бит
Тип развёртки : Прогрессивная
Бит/(Пиксели*Кадры) : 0.335
Размер потока : 4,12 Гбайт (94%)
Библиотека кодирования : x264 core 146 r2538 121396c
Настройки программы : cabac=1 / ref=9 / deblock=1:-3:-3 / analyse=0x3:0x113 / me=umh / subme=10 / psy=1 / psy_rd=1.00:0.15 / mixed_ref=1 / me_range=32 / chroma_me=1 / trellis=2 / 8x8dct=1 / cqm=0 / deadzone=21,11 / fast_pskip=1 / chroma_qp_offset=-3 / threads=6 / lookahead_threads=1 / sliced_threads=0 / nr=0 / decimate=1 / interlaced=0 / bluray_compat=0 / constrained_intra=0 / bframes=12 / b_pyramid=2 / b_adapt=2 / b_bias=0 / direct=1 / weightb=1 / open_gop=0 / weightp=2 / keyint=230 / keyint_min=23 / scenecut=40 / intra_refresh=0 / rc_lookahead=40 / rc=crf / mbtree=0 / crf=21.0 / qcomp=0.60 / qpmin=0 / qpmax=69 / qpstep=4 / vbv_maxrate=40000 / vbv_bufsize=50000 / crf_max=0.0 / nal_hrd=none / filler=0 / ip_ratio=1.40 / pb_ratio=1.30 / aq=1:1.00
Язык : German
Default : Да
Forced : Нет

Аудио #1
Идентификатор : 2
Формат : AC-3
Формат/Информация : Audio Coding 3
Расширение режима : CM (complete main)
Параметр Endianness формата : Big
Идентификатор кодека : A_AC3
Продолжительность : 1 ч. 43 м.
Вид битрейта : Постоянный
Битрейт : 192 Кбит/сек
Каналы : 1 канал
Расположение каналов : Front: C
Частота : 48,0 КГц
Частота кадров : 31,250 кадров/сек (1536 spf)
Метод сжатия : С потерями
Размер потока : 142 Мбайт (3%)
Заголовок : AVO (Юрий Живов)
Язык : Russian
Default : Да
Forced : Нет

Аудио #2
Идентификатор : 3
Формат : AC-3
Формат/Информация : Audio Coding 3
Расширение режима : CM (complete main)
Параметр Endianness формата : Big
Идентификатор кодека : A_AC3
Продолжительность : 1 ч. 43 м.
Вид битрейта : Постоянный
Битрейт : 192 Кбит/сек
Каналы : 1 канал
Расположение каналов : Front: C
Частота : 48,0 КГц
Частота кадров : 31,250 кадров/сек (1536 spf)
Метод сжатия : С потерями
Размер потока : 142 Мбайт (3%)
Заголовок : Original
Язык : German
Default : Нет
Forced : Нет

Текст
Идентификатор : 4
Формат : UTF-8
Идентификатор кодека : S_TEXT/UTF8
Идентификатор кодека/Информация : UTF-8 Plain Text
Продолжительность : 1 ч. 42 м.
Битрейт : 49 бит/сек
Count of elements : 1214
Размер потока : 37,2 Кбайт (0%)
Заголовок : английский
Язык : English
Default : Нет
Forced : Нет
pb.wtf



Скачать Мост через торрент http://i74.fastpic.ru/big/2016/0127/a1/5b1db0e2480e94b5aa832b61f935c4a1.jpg Скачать, смотреть онлайн Мост бесплантно в хорошем качестве Описание: События в фильме происходят в маленьком немецком городке в последние дни Второй мировой войны. Гитлеровская армия терпит ... 5 10 1
Info! Золотая раздача, скачанное не засчитывается.
Торрент: Зарегистрирован [2016-01-27 10:15] · скачан: 2 раз
Статус: √ проверено
Размер: 4.4 GB
Как cкачать? Как скачать Мост через торрент | UTorrent

% Раздел Тема Автор DL S | L
Фильмы с авторской озвучкой [ 14.57 GB ] Мост / Die Brucke [1959 военный BDRip 1080p by msltel] AVO msltel Скачать
1 | 0
Фильмы с авторской озвучкой [ 1.94 GB ] Мост / Die Brucke [1959 военный BDRip AVC by msltel] AVO msltel Скачать
1 | 0

28-11-2019 20:33  

Отключить всю рекламу на сайте

    Дорогой пользователь! Огромная просьба, поблагодарите релизера, оцените раздачу и оставьте свои комментарий, если Вы скачали Мост через торрент бесплатно!
    Комментировать посты могут только пользователи прошедшие не сложную регистрацию
    Показать сообщения:    

    Мост через торрент
    Скачать бесплатно Мост
    Мост скачать торрент
    Мост смотреть онлайн
    Cкачать фильм Мост бесплатно
    Мост скачать торрент в хорошем качестве
    Мост смотреть онлайн бесплатно в хорошем качестве


    Вы не можете начинать темы
    Вы не можете отвечать на сообщения
    Вы не можете редактировать свои сообщения
    Вы не можете удалять свои сообщения
    Вы не можете голосовать в опросах
    Вы не можете прикреплять файлы к сообщениям
    Вы можете скачивать файлы