Ссылка на приватное зеркало нашего сайта всего за 1$. Внимание количество ограничено!!!

2 сезон

iTunes

1 сезон

1

2 сезон

2 сезон

iTunes

1 сезон

RePack

30

Ultimate

ВАЖНО

ИГРА 18+

pack

RePack

MK11
pack

Забери бонус

RePack

jed

!!Акция!!

Alien_Rage

RePack

fifa19

RePack

Assassins Creed: Odyssey

RePack

NEED FOR SPEED™ PAYBACK

4 сезон

9 сезон

Бесстыжие 9 сезон

Все сериалы

все сериалы на PB.wtf

RePack

FAR CRY 5
  

Синистер 2 / Sinister 2 (Киран Фой) [2015, ужасы, триллер, детектив, BDRip 1080p, Дубляж - [НТВ+] pb.wtf

Синистер 2 через торрент pb.wtf

Размер: 9.29 GB | Добавлен: 4 года 9 мес. назад | Торрент скачан:515 раз
Скачать  

06-02-2016 21:50 Синистер 2 Скачать торрент  


Синистер 2 / Sinister 2
««Бойся того, во что играют твои дети»»

ИНФОРМАЦИЯ:
Год выпуска:2015
Страна: США, Великобритания
Жанр: ужасы, триллер, детектив
Продолжительность: 01:33:02
Перевод: Дубляж - [НТВ+]
Субтитры: английские (SDH), английские,
Режиссер: Киран Фой

В Ролях:


Джеймс Рэнсон (Ex-Deputy So & So), Шаннин Соссамон (Courtney Collins), Роберт Дэниэл Слоун (Dylan Collins), Дартаниан Слоун (Zach Collins), Лиа Коко (Clint Collins), Тейт Эллингтон (Dr. Stomberg), Джон Бизли (Father Rodriguez), Лукас Джейд Зуманн (Milo), Джейден Клейн (Ted), Лайла Хейли (Emma), Кейден М. Фриц (Peter), Оливия Рэйни (Catherine)

Описание:
Сиквел рассказывает о молодом шерифе, решившем продолжить расследование серии таинственных убийств, описанных в первой части фильма, из-за которых в своё время потерял жизнь друг шерифа, Элиссон Освальф.
Расследование приводит шерифа к ферме, где он знакомится с дружелюбной семьей - близнецами Заком, Диланом и их матерью Кортни. Семьей, сбежавшей от издевательств жестокого отца. Каждый день, проведенный в этом доме, может стать для них последним, как и для всех, кто жил здесь ранее и попал в поле зрения самой смерти - беспощадного демона Багула.

  • Мировая премьера:19 августа 2015

    ТЕХ.ДАННЫЕ:
    Качество: BDRip 1080p
    Формат: MKV
    Видео: AVC, 1920x800 (2.40:1), 12987 kbps, 25 fps, 0,338 bpp
    Аудио №1: русский / AC3 / 5.1 / 48 kHz / 384 kbps / 16 bit ||
    Аудио №2: английский / AC3 / 5.1 / 48 kHz / 640 kbps / 16 bit
    Навигация по главам: есть


    General
    Unique ID : 212439801445363251411256443114471086026 (0x9FD26AE12BAB25F785CC85413E90D7CA)
    Complete name : D:\Торенты\C1H1CteP.II.2O15.D.BDRip.1O8Op.mkv
    Format : Matroska
    Format version : Version 2
    File size : 9.29 GiB
    Duration : 1h 33mn
    Overall bit rate : 14.3 Mbps
    Encoded date : UTC 2016-02-04 00:05:57
    Writing application : mkvmerge v8.3.0 ('Over the Horizon') 64bit
    Writing library : libebml v1.3.1 + libmatroska v1.4.2

    Video
    ID : 1
    Format : AVC
    Format/Info : Advanced Video Codec
    Format profile : High@L4.1
    Format settings, CABAC : Yes
    Format settings, ReFrames : 5 frames
    Codec ID : V_MPEG4/ISO/AVC
    Duration : 1h 33mn
    Bit rate : 13.0 Mbps
    Width : 1 920 pixels
    Height : 800 pixels
    Display aspect ratio : 2.40:1
    Frame rate : 25.000 fps
    Color space : YUV
    Chroma subsampling : 4:2:0
    Bit depth : 8 bits
    Scan type : Progressive
    Bits/(Pixel*Frame) : 0.338
    Stream size : 8.44 GiB (91%)
    Writing library : x264 core 148 r2638 7599210
    Encoding settings : cabac=1 / ref=5 / deblock=1:-3:-3 / analyse=0x3:0x133 / me=umh / subme=10 / psy=1 / psy_rd=0.98:0.00 / mixed_ref=1 / me_range=48 / chroma_me=1 / trellis=2 / 8x8dct=1 / cqm=0 / deadzone=21,11 / fast_pskip=1 / chroma_qp_offset=-2 / threads=8 / lookahead_threads=2 / sliced_threads=0 / nr=0 / decimate=1 / interlaced=0 / bluray_compat=0 / constrained_intra=0 / bframes=10 / b_pyramid=2 / b_adapt=2 / b_bias=0 / direct=3 / weightb=1 / open_gop=0 / weightp=2 / keyint=250 / keyint_min=25 / scenecut=40 / intra_refresh=0 / rc_lookahead=150 / rc=crf / mbtree=0 / crf=16.0 / qcomp=0.65 / qpmin=0 / qpmax=69 / qpstep=4 / vbv_maxrate=50000 / vbv_bufsize=62500 / crf_max=0.0 / nal_hrd=none / filler=0 / ip_ratio=1.30 / pb_ratio=1.20 / aq=3:0.85
    Language : English
    Default : Yes
    Forced : No

    Audio #1
    ID : 2
    Format : AC-3
    Format/Info : Audio Coding 3
    Mode extension : CM (complete main)
    Codec ID : A_AC3
    Duration : 1h 33mn
    Bit rate mode : Constant
    Bit rate : 384 Kbps
    Channel(s) : 6 channels
    Channel positions : Front: L C R, Side: L R, LFE
    Sampling rate : 48.0 KHz
    Bit depth : 16 bits
    Compression mode : Lossy
    Stream size : 256 MiB (3%)
    Language : Russian
    Default : Yes
    Forced : No

    Audio #2
    ID : 3
    Format : AC-3
    Format/Info : Audio Coding 3
    Mode extension : CM (complete main)
    Codec ID : A_AC3
    Duration : 1h 33mn
    Bit rate mode : Constant
    Bit rate : 640 Kbps
    Channel(s) : 6 channels
    Channel positions : Front: L C R, Side: L R, LFE
    Sampling rate : 48.0 KHz
    Bit depth : 16 bits
    Compression mode : Lossy
    Stream size : 426 MiB (4%)
    Language : English
    Default : No
    Forced : No

    Text #1
    ID : 4
    Format : UTF-8
    Codec ID : S_TEXT/UTF8
    Codec ID/Info : UTF-8 Plain Text
    Title : SDH
    Language : English
    Default : No
    Forced : No

    Text #2
    ID : 5
    Format : UTF-8
    Codec ID : S_TEXT/UTF8
    Codec ID/Info : UTF-8 Plain Text
    Language : English
    Default : No
    Forced : No

    Menu
    00:00:00.000 : en:00:00:00.000
    00:06:06.600 : en:00:06:06.600
    00:09:53.160 : en:00:09:53.160
    00:18:13.480 : en:00:18:13.480
    00:25:35.200 : en:00:25:35.200
    00:35:04.640 : en:00:35:04.640
    00:46:58.640 : en:00:46:58.640
    00:57:18.560 : en:00:57:18.560
    01:07:29.000 : en:01:07:29.000
    01:15:34.600 : en:01:15:34.600
    01:20:10.680 : en:01:20:10.680
    01:25:48.560 : en:01:25:48.560
    Скриншоты:

    © Оформление by .::Ворон::.
    pb.wtf



  • Скачать Синистер 2 через торрент http://pic.kartinco.top/images/6/ordi9.jpg Скачать фильм Синистер 2 через торрент бесплантно в хорошем качестве Описание: Сиквел рассказывает о молодом шерифе, решившем продолжить расследование серии таинственных убийств, описанных в первой части ... 8.6 10 17
    Info! Золотая раздача, скачанное не засчитывается.
    Торрент: Зарегистрирован [2016-02-06 21:50] · скачан: 515 раз
    Статус: √ проверено
    Размер: 9.29 GB
    Как cкачать? Как скачать Синистер 2 через торрент | qTorrent

    % Раздел Тема Автор DL S | L
    Фильмы (Blu-ray, BD-Remux, HDDVD) [ 31.01 GB ] Синистер 2 / Sinister 2 [2015 Blu-ray RUS 1080p] [Rus Transfer] DUB [] bober100 Скачать
    1 | 0
    Фильмы 2015 [DVDrip, WEB-DLRip, HDrip] [ 1.46 GB ] Синистер 2 / Sinister 2 [2015 BDRip] - [] Twi7ter Скачать
    2 | 0
    Фильмы 2015 [DVDrip, WEB-DLRip, HDrip] [ 1.46 GB ] Синистер 2 / Sinister 2 [2015 BDRip] [Rus Transfer] DUB [] bober100 Скачать
    1 | 0
    T Фильмы (Blu-ray, BD-Remux, HDDVD) [ 12.37 GB ] Синистер 2 / Sinister 2 [2015 ] - [Чистый звук] Blu-ray Remux [1080p] DINO-UFO Скачать
    1 | 0
    Фильмы 2015 [DVDrip, WEB-DLRip, HDrip] [ 1.42 GB ] Синистер 2 / Sinister 2 [2015 BDRip ] Twi7ter Скачать
    2 | 0
    Фильмы 2015 [DVDrip, WEB-DLRip, HDrip] [ 2.14 GB ] Синистер 2 / Sinister 2 [2015 BDRip-AVC] Dub [НТВ potroks Скачать
    1 | 0
    Фильмы 2015 [DVDrip, WEB-DLRip, HDrip] [ 1.42 GB ] Синистер 2 / Sinister 2 [2015 BDRip - [НТВ Twi7ter Скачать
    1 | 0

    28-11-2019 20:33  

    Отключить всю рекламу на сайте

    08-02-2016 19:02 Синистер 2 Скачать торрент  

    посмотрел, вроде нормально..
    прошло минут 10 и я осознал что как-то что-то не очень фильмpb.wtf



      Дорогой пользователь! Огромная просьба, поблагодарите релизера, оцените раздачу и оставьте свои комментарий, если Вы скачали Синистер 2 через торрент бесплатно! Внесите свою лепту в развитие PiratBit!
      Комментировать посты могут только пользователи прошедшие не сложную регистрацию
      Показать сообщения:    

      Синистер 2 через торрент
      Скачать бесплатно Синистер 2
      Синистер 2 скачать торрент
      Синистер 2 смотреть онлайн
      Cкачать фильм Синистер 2 бесплатно
      Синистер 2 скачать торрент в хорошем качестве
      Синистер 2 смотреть онлайн бесплатно в хорошем качестве


      Вы не можете начинать темы
      Вы не можете отвечать на сообщения
      Вы не можете редактировать свои сообщения
      Вы не можете удалять свои сообщения
      Вы не можете голосовать в опросах
      Вы не можете прикреплять файлы к сообщениям
      Вы можете скачивать файлы