Всегда рабочее зеркало без VPN и Proxy просто перед .vidak.icu напиши любое слово или цифру, Пример http://m55v.vidak.icu

MVO

2 сезон

1 сезон

1

1 сезон

iTunes

2 сезон

13

1 сезон

Распродажа

pack

Рекомендуем

Пиратка

30

ВАЖНО

RePack

MK11

RePack

jed

RePack

fifa19

RePack

RDR2

RePack

NEED FOR SPEED™ PAYBACK

Кинопоиск HD

6 сезон

 Острые козырьки 6 сезон

Все сериалы

все сериалы на PB.wtf

RePack

FAR CRY 5

Anonymous, нам критически не хватает 5601 руб. на оплату серверов и переферии за Апрель, помоги нам пожалуйста, вся надежда только на тебя. В благодарность мы отключим тебе всю рекламу на сайте!

×
  
Magnet ссылка

Мистер Холмс / Mr. Holmes (Билл Кондон ) [2015, драма, детектив, BDRip 720p от _denis_100 / NNNB] Авторский (Ю. Сербин) pb.wtf

Мистер Холмс через торрент pb.wtf

Размер: 4.37 GB | Добавлен: 6 лет 2 мес. назад | Торрент скачан:119 раз
Смотреть онлайн Мистер Холмс | Скачать    Ребята, помогите собрать деньги на оплату серверов!!!

03-03-2016 15:41 Мистер Холмс Скачать торрент  

Мистер Холмс / Mr. Holmes
«The man behind the myth»


Год выпуска: 2015
Страна: Великобритания, США
Жанр: драма, детектив
Продолжительность: 01:43:44
Перевод: Авторский одноголосый
Субтитры: русские
Режиссер: Билл Кондон
В ролях: Иэн МакКеллен , Лора Линни , Майло Паркер , Хироюки Санада , Хэтти Морахэн , Патрик Кеннеди , Роджер Аллам , Филип Дэвис , Фрэнсис де ла Тур , Чарльз Мэддокс , Такако Акаши , Zak Shukor
Описание:
Самый знаменитый в мире сыщик давно отошел от дел и проводит старость в тихой деревне, ухаживая за собственной пасекой. Однако ему по-прежнему не дают покоя воспоминания об одной женщине и её тайне, так и оставшейся нераскрытой. Во что бы то ни стало он решает найти разгадку дела, заставившего его уйти в отставку больше 30 лет назад.

PG - Рекомендуется присутствие родителей
Качество: BDRip 720p
Контейнер (Расширение): MKV
Видео: 1280x534, 4753 Кбит/сек, 23,976 кадр/сек, 0,290 Бит/[Пиксели*Кадры]
Аудио №1: русский / AC3 / 5.1 / 48 kHz / 640 kbps / 16 bit |Авторский, Ю. Сербин|
Аудио №2: английский / AC3 / 5.1 / 48 kHz / 640 kbps / 16 bitАвтор рипа: Сообщество:

Код:

Format                                   : Matroska
Format version                           : Version 2
File size                                : 4.37 GiB
Duration                                 : 1h 43mn
Overall bit rate                         : 6 030 Kbps
Movie name                               : Mr. Holmes.(2015).BDRip.720p.[denis100]
Encoded date                             : UTC 2016-03-03 15:34:25
Writing application                      : mkvmerge v5.8.0 ('No Sleep / Pillow') built on Sep  2 2012 15:37:04
Writing library                          : libebml v1.2.3 + libmatroska v1.3.0

Video
ID                                       : 1
Format                                   : AVC
Format/Info                              : Advanced Video Codec
Format profile                           : High@L4.1
Format settings, CABAC                   : Yes
Format settings, ReFrames                : 11 frames
Codec ID                                 : V_MPEG4/ISO/AVC
Duration                                 : 1h 43mn
Bit rate                                 : 4 753 Kbps
Width                                    : 1 280 pixels
Height                                   : 534 pixels
Display aspect ratio                     : 2.40:1
Frame rate                               : 23.976 fps
Color space                              : YUV
Chroma subsampling                       : 4:2:0
Bit depth                                : 8 bits
Scan type                                : Progressive
Bits/(Pixel*Frame)                       : 0.290
Stream size                              : 3.36 GiB (77%)
Title                                    : Mr. Holmes.(2015).BDRip.720p.[denis100]
Writing library                          : x264 core 148 r2665 a01e339
Encoding settings                        : cabac=1 / ref=11 / deblock=1:-3:-3 / analyse=0x3:0x133 / me=umh / subme=11 / psy=1 / psy_rd=1.00:0.00 / mixed_ref=1 / me_range=32 / chroma_me=1 / trellis=2 / 8x8dct=1 / cqm=0 / deadzone=21,11 / fast_pskip=0 / chroma_qp_offset=-2 / threads=6 / lookahead_threads=1 / sliced_threads=0 / nr=0 / decimate=1 / interlaced=0 / bluray_compat=0 / constrained_intra=0 / bframes=9 / b_pyramid=2 / b_adapt=2 / b_bias=0 / direct=3 / weightb=1 / open_gop=0 / weightp=2 / keyint=240 / keyint_min=23 / scenecut=40 / intra_refresh=0 / rc=2pass / mbtree=0 / bitrate=4753 / ratetol=1.0 / qcomp=0.60 / qpmin=0 / qpmax=69 / qpstep=4 / cplxblur=20.0 / qblur=0.5 / ip_ratio=1.40 / pb_ratio=1.30 / aq=2:1.00
Language                                 : English
Default                                  : Yes
Forced                                   : No

Audio #1
ID                                       : 2
Format                                   : AC-3
Format/Info                              : Audio Coding 3
Mode extension                           : CM (complete main)
Codec ID                                 : A_AC3
Duration                                 : 1h 43mn
Bit rate mode                            : Constant
Bit rate                                 : 640 Kbps
Channel(s)                               : 6 channels
Channel positions                        : Front: L C R, Side: L R, LFE
Sampling rate                            : 48.0 KHz
Bit depth                                : 16 bits
Compression mode                         : Lossy
Stream size                              : 475 MiB (11%)
Title                                    : Авторский, Сербин
Language                                 : Russian
Default                                  : Yes
Forced                                   : No

Audio #2
ID                                       : 3
Format                                   : AC-3
Format/Info                              : Audio Coding 3
Mode extension                           : CM (complete main)
Codec ID                                 : A_AC3
Duration                                 : 1h 43mn
Bit rate mode                            : Constant
Bit rate                                 : 640 Kbps
Channel(s)                               : 6 channels
Channel positions                        : Front: L C R, Side: L R, LFE
Sampling rate                            : 48.0 KHz
Bit depth                                : 16 bits
Compression mode                         : Lossy
Stream size                              : 475 MiB (11%)
Language                                 : English
Default                                  : No
Forced                                   : No

Text
ID                                       : 4
Format                                   : UTF-8
Codec ID                                 : S_TEXT/UTF8
Codec ID/Info                            : UTF-8 Plain Text
Language                                 : Russian
Default                                  : No
Forced                                   : No

Menu
00:00:00.000                             : en:Chapter 01
00:07:29.155                             : en:Chapter 02
00:13:13.581                             : en:Chapter 03
00:17:31.007                             : en:Chapter 04
00:26:19.161                             : en:Chapter 05
00:33:56.826                             : en:Chapter 06
00:39:33.996                             : en:Chapter 07
00:45:15.002                             : en:Chapter 08
00:53:34.670                             : en:Chapter 09
00:59:44.789                             : en:Chapter 10
01:05:44.064                             : en:Chapter 11
01:14:05.439                             : en:Chapter 12
01:24:24.433                             : en:Chapter 13
01:29:30.487                             : en:Chapter 14
01:34:30.957                             : en:Chapter 15
01:39:47.353                             : en:Chapter 16

x264 [info]: frame I:1515 Avg QP:11.18 size:141942
x264 [info]: frame P:32532 Avg QP:13.69 size: 51313
x264 [info]: frame B:115197 Avg QP:15.53 size: 15712
pb.wtf



Скачать Мистер Холмс через торрент http://i76.fastpic.ru/big/2016/0303/78/7560c213069e2191d8b8fbc21d3d1978.png Скачать, смотреть онлайн Мистер Холмс бесплантно в хорошем качестве Описание:Самый знаменитый в мире сыщик давно отошел от дел и проводит старость в тихой деревне, ухаживая за собственной пасекой. Однако ему ... 10 10 2
Info! Золотая раздача, скачанное не засчитывается.
Торрент: Зарегистрирован [2016-03-03 15:41] · скачан: 119 раз
Статус: √ проверено
Размер: 4.37 GB
Как cкачать? Как скачать Мистер Холмс через торрент | UTorrent

% Раздел Тема Автор DL S | L
Фильмы 2015 [DVDrip, WEB-DLRip, HDrip] [ 1.41 GB ] Мистер Холмс / Mr. Holmes [2015 BDRip-AVC от sokol_ok] MVO sokol_ok Скачать
2 | 0
Фильмы 2015 [DVDrip, WEB-DLRip, HDrip] [ 748 MB ] Мистер Холмс / Mr. Holmes [2015 HDRip by _Один_777] MVO () Один 777 Скачать
1 | 0
Фильмы 2015 [DVDrip, WEB-DLRip, HDrip] [ 2.04 GB ] Мистер Холмс / Mr. Holmes [2015 HDRip многоголосый закадровый ""] coc900 Скачать
1 | 0
Фильмы 2015 [DVDrip, WEB-DLRip, HDrip] [ 1.41 GB ] Мистер Холмс / Mr. Holmes [2015 BDRip-AVC] MVO potroks Скачать
1 | 0
Фильмы 2015 [DVDrip, WEB-DLRip, HDrip] [ 1.37 GB ] Мистер Холмс / Mr. Holmes [2015 HDRip] MVO Ворон Скачать
1 | 0
R.G. Resident & PiratVoice - Фильмы, Видео [ 1.46 GB ] Мистер Холмс / Mr. Holmes [2015 BDRip-AVC Авторский Ю.Сербин] R.G.Resident Хорват Скачать
1 | 0
Фильмы без перевода [ 1.41 GB ] Мистер Холмс / Mr. Holmes [2015 HDRip] [Sub] killermax2013 Скачать
1 | 0

28-11-2019 20:33  

Отключить всю рекламу на сайте

03-03-2016 17:58 Мистер Холмс Скачать торрент  

Мистер Гендальф.pb.wtf



24-03-2016 06:33 Мистер Холмс Скачать торрент  

Чот посох у Гэндальфа совсем усох.В тросточку превратился.А фейерверки будут?...pb.wtf



    Дорогой пользователь! Огромная просьба, поблагодарите релизера, оцените раздачу и оставьте свои комментарий, если Вы скачали Мистер Холмс через торрент бесплатно!
    Комментировать посты могут только пользователи прошедшие не сложную регистрацию
    Показать сообщения:    

    Мистер Холмс через торрент
    Скачать бесплатно Мистер Холмс
    Мистер Холмс скачать торрент
    Мистер Холмс смотреть онлайн
    Cкачать фильм Мистер Холмс бесплатно
    Мистер Холмс скачать торрент в хорошем качестве
    Мистер Холмс смотреть онлайн бесплатно в хорошем качестве


    Вы не можете начинать темы
    Вы не можете отвечать на сообщения
    Вы не можете редактировать свои сообщения
    Вы не можете удалять свои сообщения
    Вы не можете голосовать в опросах
    Вы не можете прикреплять файлы к сообщениям
    Вы можете скачивать файлы