Всегда рабочее зеркало без VPN и Proxy просто перед .vidak.icu напиши любое слово или цифру, Пример http://jwvf.vidak.icu

MVO

2 сезон

2 сезон

1

1 сезон

iTunes

2 сезон

13

1 сезон

Deluxe

pack

Рекомендуем

Пиратка

30

ВАЖНО

RePack

MK11

RePack

jed

RePack

fifa19

RePack

RDR2

RePack

NEED FOR SPEED™ PAYBACK

Кинопоиск HD

6 сезон

 Острые козырьки 6 сезон

Все сериалы

все сериалы на PB.wtf

RePack

FAR CRY 5

Anonymous, нам критически не хватает 5601 руб. на оплату серверов и переферии за Апрель, помоги нам пожалуйста, вся надежда только на тебя. В благодарность мы отключим тебе всю рекламу на сайте!

×
  
Magnet ссылка

Комната / Room (Леонард Абрахамсон / Lenny Abrahamson) [2015, драма, BDRip 720p от potroks] AVO pb.wtf

Комната через торрент pb.wtf

Размер: 4.37 GB | Добавлен: 6 лет 2 мес. назад | Торрент скачан:288 раз
Смотреть онлайн Комната | Скачать    Ребята, помогите собрать деньги на оплату серверов!!!

20-02-2016 21:15 Комната Скачать торрент  

Комната / Room
«Love knows no boundaries»
Год выпуска: 2015
Страна: Ирландия, Канада / A24, Element Pictures, No Trace Camping
Жанр: драма
Продолжительность: 01:57:38
Перевод: Авторский (одноголосый) [А.Матвеев / ценз.]
Субтитры: русские (полные + форс.), английские (Full), английские (SDH)
Навигация по главам: есть
Режиссер: Леонард Абрахамсон / Lenny Abrahamson
В ролях:

Бри Ларсон (Ma), Джейкоб Тремблэ (Jack), Шон Бриджерс (Old Nick), Джоан Аллен (Nancy), Том МакКэмус (Leo), Уильям Х. Мэйси (Robert), Кэс Анвар (Dr. Mittal), Рендал Эдвардс (Lawyer), Аманда Бругел (Officer Parker), Джо Пинг (Officer Grabowski), Венди Крюсон (Talk Show Hostess), Сэнди МакМастер (Veteran)
Описание: Девушку по имени Ма похитили, когда она была еще подростком. С тех пор бедняга живет в крохотной комнатке вместе со своим 5-летним сыном Джеком. Мальчик при этом ничего кроме этой комнаты не видел, он в ней родился и ни разу ее не покидал.

Качество: BDRip 720p
Формат: MKV
Видео кодек: AVC
Аудио кодек: AC3
Видео: 1280x534 (2.40:1), 4040 kbps, 23,976 fps, 0,247 bit/pixel
Аудио №1: AC3 / 5.1 / 48 kHz / 640 kbps / 16 bit | RUS
Аудио №2: AC3 / 5.1 / 48 kHz / 640 kbps / 16 bit | ENG

Релиз группы:
Автор рипа: potroks

Код:

General
Unique ID                                : 209610820243762307635590893569385146820 (0x9DB193566D01E11DB9ED6BD6B82FA9C4)
Complete name                            : Komnata.2015.DUAL.BDRip.720p.-HELLYWOOD.mkv
Format                                   : Matroska
Format version                           : Version 4 / Version 2
File size                                : 4.37 GiB
Duration                                 : 1h 57mn
Overall bit rate                         : 5 318 Kbps
Movie name                               : Room (2015) - HELLYWOOD
Encoded date                             : UTC 2016-02-20 20:36:07
Writing application                      : mkvmerge v5.9.0 ('On The Loose') built on Dec 15 2012 16:39:58
Writing library                          : libebml v1.3.0 + libmatroska v1.4.0

Video
ID                                       : 1
Format                                   : AVC
Format/Info                              : Advanced Video Codec
Format profile                           : High@L4.1
Format settings, CABAC                   : Yes
Format settings, ReFrames                : 9 frames
Codec ID                                 : V_MPEG4/ISO/AVC
Duration                                 : 1h 57mn
Bit rate                                 : 4 040 Kbps
Width                                    : 1 280 pixels
Height                                   : 534 pixels
Display aspect ratio                     : 2.40:1
Frame rate                               : 23.976 fps
Color space                              : YUV
Chroma subsampling                       : 4:2:0
Bit depth                                : 8 bits
Scan type                                : Progressive
Bits/(Pixel*Frame)                       : 0.247
Stream size                              : 3.23 GiB (74%)
Title                                    : potroks
Writing library                          : x264 core 146 r2538 121396c
Encoding settings                        : cabac=1 / ref=9 / deblock=1:-3:-3 / analyse=0x3:0x113 / me=umh / subme=11 / psy=1 / psy_rd=1.05:0.05 / mixed_ref=1 / me_range=48 / chroma_me=1 / trellis=2 / 8x8dct=1 / cqm=0 / deadzone=21,11 / fast_pskip=0 / chroma_qp_offset=-3 / threads=9 / lookahead_threads=2 / sliced_threads=0 / nr=0 / decimate=0 / interlaced=0 / bluray_compat=0 / constrained_intra=0 / bframes=10 / b_pyramid=2 / b_adapt=2 / b_bias=0 / direct=3 / weightb=1 / open_gop=0 / weightp=2 / keyint=240 / keyint_min=23 / scenecut=40 / intra_refresh=0 / rc_lookahead=60 / rc=2pass / mbtree=0 / bitrate=4040 / ratetol=1.0 / qcomp=0.70 / qpmin=0 / qpmax=69 / qpstep=4 / cplxblur=20.0 / qblur=0.5 / vbv_maxrate=14000 / vbv_bufsize=14000 / nal_hrd=none / filler=0 / ip_ratio=1.40 / pb_ratio=1.30 / aq=1:0.80
Language                                 : English
Default                                  : Yes
Forced                                   : No

Audio #1
ID                                       : 2
Format                                   : AC-3
Format/Info                              : Audio Coding 3
Mode extension                           : CM (complete main)
Codec ID                                 : A_AC3
Duration                                 : 1h 57mn
Bit rate mode                            : Constant
Bit rate                                 : 640 Kbps
Channel(s)                               : 6 channels
Channel positions                        : Front: L C R, Side: L R, LFE
Sampling rate                            : 48.0 KHz
Bit depth                                : 16 bits
Compression mode                         : Lossy
Stream size                              : 538 MiB (12%)
Title                                    : AVO | DD 5.1 @ 640 kbps - A.Matveev [censored]
Language                                 : Russian
Default                                  : Yes
Forced                                   : No

Audio #2
ID                                       : 3
Format                                   : AC-3
Format/Info                              : Audio Coding 3
Mode extension                           : CM (complete main)
Codec ID                                 : A_AC3
Duration                                 : 1h 57mn
Bit rate mode                            : Constant
Bit rate                                 : 640 Kbps
Channel(s)                               : 6 channels
Channel positions                        : Front: L C R, Side: L R, LFE
Sampling rate                            : 48.0 KHz
Bit depth                                : 16 bits
Compression mode                         : Lossy
Stream size                              : 538 MiB (12%)
Title                                    : Original | DD 5.1 @ 640 kbps
Language                                 : English
Default                                  : No
Forced                                   : No

Text #1
ID                                       : 4
Format                                   : UTF-8
Codec ID                                 : S_TEXT/UTF8
Codec ID/Info                            : UTF-8 Plain Text
Title                                    : Forced
Language                                 : Russian
Default                                  : Yes
Forced                                   : No

Text #2
ID                                       : 5
Format                                   : UTF-8
Codec ID                                 : S_TEXT/UTF8
Codec ID/Info                            : UTF-8 Plain Text
Title                                    : censored
Language                                 : Russian
Default                                  : No
Forced                                   : No

Text #3
ID                                       : 6
Format                                   : UTF-8
Codec ID                                 : S_TEXT/UTF8
Codec ID/Info                            : UTF-8 Plain Text
Title                                    : uncensored
Language                                 : Russian
Default                                  : No
Forced                                   : No

Text #4
ID                                       : 7
Format                                   : UTF-8
Codec ID                                 : S_TEXT/UTF8
Codec ID/Info                            : UTF-8 Plain Text
Title                                    : Full
Language                                 : English
Default                                  : No
Forced                                   : No

Text #5
ID                                       : 8
Format                                   : UTF-8
Codec ID                                 : S_TEXT/UTF8
Codec ID/Info                            : UTF-8 Plain Text
Title                                    : SDH
Language                                 : English
Default                                  : No
Forced                                   : No

Menu
00:00:00.000                             : en:Chapter 01
00:07:07.427                             : en:Chapter 02
00:12:23.033                             : en:Chapter 03
00:24:29.759                             : en:Chapter 04
00:31:11.786                             : en:Chapter 05
00:37:16.859                             : en:Chapter 06
00:47:27.761                             : en:Chapter 07
00:52:27.018                             : en:Chapter 08
00:59:46.040                             : en:Chapter 09
01:09:29.582                             : en:Chapter 10
01:16:51.523                             : en:Chapter 11
01:23:52.861                             : en:Chapter 12
01:31:30.943                             : en:Chapter 13
01:37:03.150                             : en:Chapter 14
01:43:28.493                             : en:Chapter 15
01:48:23.955                             : en:Chapter 16

pb.wtf



Скачать Комната через торрент http://i74.fastpic.ru/big/2016/0221/01/509aed7b9fef14862e06ffa38f02bf01.png Скачать, смотреть онлайн Комната бесплантно в хорошем качестве Описание: Девушку по имени Ма похитили, когда она была еще подростком. С тех пор бедняга живет в крохотной комнатке вместе со своим ... 10 10 6
Info! Золотая раздача, скачанное не засчитывается.
Торрент: Зарегистрирован [2016-02-20 21:15] · скачан: 288 раз
Статус: √ проверено
Размер: 4.37 GB
Как cкачать? Как скачать Комната через торрент | UTorrent

% Раздел Тема Автор DL S | L
Фильмы [HD 720p, 1080p] (Хороший звук DUB, MVO) [ 8.74 GB ] Зелёная комната / Green Room [2015 BDRip 1080p] DUB [SDI Media] +3xAVO bober100 Скачать
1 | 0
Фильмы (Blu-ray, BD-Remux, HDDVD) [ 26.3 GB ] Зелёная комната / Green Room [2015 BD Remux 1080p] 3xAVO bober100 Скачать
1 | 0
Фильмы с авторской озвучкой [ 16.84 GB ] Комната / Room AVO MVO кэп Скачать
1 | 0
Фильмы с авторской озвучкой [ 1.65 GB ] Комната страха / Panic Room [2002 DVDRip] [AVO] killermax2013 Скачать
1 | 0
Фильмы с авторской озвучкой [ 1.46 GB ] Комната / Room [2015 BDRip-AVC] AVO potroks Скачать
1 | 0
Фильмы [HD 720p, 1080p] (Хороший звук DUB, MVO) [ 12 GB ] Четыре комнаты / Four Rooms [1995 BDRip 1080p] DVO 3 x AVO msltel Скачать
1 | 0
Фильмы [HD 720p, 1080p] (Хороший звук DUB, MVO) [ 4.63 GB ] Четыре комнаты / Four Rooms [1995 BDRip 720p] DVO 3 x AVO msltel Скачать
1 | 0

28-11-2019 20:33  

Отключить всю рекламу на сайте

03-03-2016 22:03 Комната Скачать торрент  

Очень редко пишу комментарии. Сильно. Чистого сердца всем.pb.wtf



    Дорогой пользователь! Огромная просьба, поблагодарите релизера, оцените раздачу и оставьте свои комментарий, если Вы скачали Комната через торрент бесплатно!
    Комментировать посты могут только пользователи прошедшие не сложную регистрацию
    Показать сообщения:    

    Комната через торрент
    Скачать бесплатно Комната
    Комната скачать торрент
    Комната смотреть онлайн
    Cкачать фильм Комната бесплатно
    Комната скачать торрент в хорошем качестве
    Комната смотреть онлайн бесплатно в хорошем качестве


    Вы не можете начинать темы
    Вы не можете отвечать на сообщения
    Вы не можете редактировать свои сообщения
    Вы не можете удалять свои сообщения
    Вы не можете голосовать в опросах
    Вы не можете прикреплять файлы к сообщениям
    Вы можете скачивать файлы