Всегда рабочее зеркало без VPN и Proxy просто перед .vidak.icu напиши любое слово или цифру, Пример http://hgmo.vidak.icu

Лицензия

MVO

1 сезон

1

1 сезон

iTunes

1 сезон

13

1 сезон

Deluxe

pack

Рекомендуем

Repack

30

ВАЖНО

RePack

MK11

RePack

jed

RePack

fifa19

RePack

RDR2

RePack

NEED FOR SPEED™ PAYBACK

Кинопоиск HD

6 сезон

 Острые козырьки 6 сезон

Все сериалы

все сериалы на PB.wtf

RePack

FAR CRY 5
  
Magnet ссылка

Спидграфер / Speed Grapher (Кунихиса Сугисима)[01-24 из 24] [2005 г., Боевик, фантастика, драма, DVDRip, Профессиональный (многоголосый)] pb.wtf

Спидграфер через торрент pb.wtf

Размер: 7.15 GB | Добавлен: 6 лет 4 мес. назад | Торрент скачан:41 раз
Смотреть онлайн Спидграфер | Скачать    Ребята, помогите собрать деньги на оплату серверов!!!

06-04-2016 22:33 Спидграфер Скачать торрент  

Спидграфер / Speed Grapher
Год выпуска: 2005
Страна: Япония
Жанр: Боевик, фантастика, драма
Продолжительность: ~ 00:23:00
Перевод: Профессиональный (многоголосый)Телеканал 2х2
Субтитры: Присутствуют вырезанные эпизоды с субтитрами.

Режиссер: Кунихиса Сугисима

В ролях: Юдзи Такада, Кэй Сайто, Тосиюки Морикава, Гара Такасима, Такако Хонда, Рикия Кояма

Описание: Однажды бывший военный фотограф Тацуми Сайга проник на встречу известного в определённых кругах, закрытого от сторонней публики клуба. Это место - рай, но рай для грешников. Как и в каждом уважающем себя клубе, здесь для VIP-членов существуют свои восхитительные привилегии. В клубе он встречает удивительную девушку - "Богиню". Дальнейшие события разворачиваются неожиданно для героя, перед лицом смерти Богиня целует его, наделяя необычными способностями - уничтожать все, что попадает в объектив его фотоаппарата. Используя новые силы Сайга сбегает из клуба, прихватив с собой девушку, и теперь вынужден скрываться от преследователей - шайки, контролирующей тайный клуб.

Качество: DVDRiр
Формат: MKV
Видео кодек: H.264
Аудио кодек: AC3
Видео: 1024x576 16:9, 1 332 Кбит/с, 23.976 fps
Аудио#1: АС-3 256 kbps 44,1 Khz 2ch



General
Unique ID : 157376333666792634400557492806934430611 (0x766594509687340AB001CC52DEA98393)
Complete name : C:загрузкаSpeed Grapher 2x2 (DVDRip 1024x576 x264 AC3)Speed Grapher 2x2 - 01 (DVDRip 1024x576 x264 AC3).mkv
Format : Matroska
Format version : Version 2
File size : 315 MiB
Duration : 23mn 10s
Overall bit rate : 1 897 Kbps
Writing application : Lavf52.93.0
Writing library : Lavf52.93.0

Video
ID : 1
Format : AVC
Format/Info : Advanced Video Codec
Format profile : [email protected]
Format settings, CABAC : Yes
Format settings, ReFrames : 5 frames
Codec ID : V_MPEG4/ISO/AVC
Duration : 23mn 10s
Bit rate : 1 603 Kbps
Width : 1 024 pixels
Height : 576 pixels
Display aspect ratio : 16:9
Frame rate mode : Constant
Frame rate : 23.976 fps
Color space : YUV
Chroma subsampling : 4:2:0
Bit depth : 8 bits
Scan type : Progressive
Bits/(Pixel*Frame) : 0.113
Stream size : 266 MiB (85%)
Writing library : x264 core 138 r2358 9e941d1
Encoding settings : cabac=1 / ref=5 / deblock=1:-1:-1 / analyse=0x3:0x113 / me=umh / subme=11 / psy=1 / psy_rd=0.90:0.00 / mixed_ref=1 / me_range=32 / chroma_me=1 / trellis=2 / 8x8dct=1 / cqm=0 / deadzone=21,11 / fast_pskip=0 / chroma_qp_offset=-2 / threads=12 / lookahead_threads=1 / sliced_threads=0 / nr=0 / decimate=1 / interlaced=0 / bluray_compat=0 / constrained_intra=0 / bframes=3 / b_pyramid=0 / b_adapt=2 / b_bias=1 / direct=3 / weightb=1 / open_gop=0 / weightp=2 / keyint=240 / keyint_min=23 / scenecut=40 / intra_refresh=0 / rc_lookahead=50 / rc=crf / mbtree=1 / crf=15.0 / qcomp=0.70 / qpmin=10 / qpmax=30 / qpstep=4 / vbv_maxrate=62500 / vbv_bufsize=78125 / crf_max=0.0 / nal_hrd=none / ip_ratio=1.40 / aq=1:1.10
Language : Japanese
Default : Yes
Forced : No
Color primaries : BT.601 PAL
Transfer characteristics : BT.470 System B, BT.470 System G
Matrix coefficients : BT.601

Audio
ID : 2
Format : AC-3
Format/Info : Audio Coding 3
Mode extension : CM (complete main)
Format settings, Endianness : Big
Codec ID : A_AC3
Duration : 23mn 10s
Bit rate mode : Constant
Bit rate : 256 Kbps
Channel count : 2 channels
Channel positions : Front: L R
Sampling rate : 44.1 KHz
Bit depth : 16 bits
Compression mode : Lossy
Stream size : 42.4 MiB (13%)
Default : Yes
Forced : No

Menu
00:00:00.000 : :Chapter 01
00:11:34.267 : :Chapter 02
00:21:20.667 : :Chapter 03
00:22:53.601 : :Chapter 04

pb.wtf



Скачать Спидграфер через торрент http://omydcoi.ojqwi2llmfwc44tv.cmle.ru/i610/1604/84/db2b1dd9f217.jpg Скачать, смотреть онлайн Спидграфер бесплантно в хорошем качестве Описание: Однажды бывший военный фотограф Тацуми Сайга проник на встречу известного в определённых кругах, закрытого от сторонней публики ... 10 10 2
Торрент: Зарегистрирован [2016-04-06 22:33] · скачан: 41 раз
Статус: √ проверено
Размер: 7.15 GB
Как cкачать? Как скачать Спидграфер через торрент | UTorrent

28-11-2019 20:33  

Отключить вcю реклaмy на сайте

    Дорогой пользователь! Огромная просьба, поблагодарите релизера, оцените раздачу и оставьте свои комментарий, если Вы скачали Спидграфер через торрент бесплатно!
    Комментировать посты могут только пользователи прошедшие не сложную регистрацию
    Показать сообщения:    

    Спидграфер через торрент
    Скачать бесплатно Спидграфер
    Спидграфер скачать торрент
    Спидграфер смотреть онлайн
    Cкачать фильм Спидграфер бесплатно
    Спидграфер скачать торрент в хорошем качестве
    Спидграфер смотреть онлайн бесплатно в хорошем качестве


    Вы не можете начинать темы
    Вы не можете отвечать на сообщения
    Вы не можете редактировать свои сообщения
    Вы не можете удалять свои сообщения
    Вы не можете голосовать в опросах
    Вы не можете прикреплять файлы к сообщениям
    Вы можете скачивать файлы