Ссылка на приватное зеркало всего за 1$. Внимание количество ограничено!!!

OK

1+1

iTunes

мы

OK

1

WEB-DLRip

Джокер

Пифагор

Ведьмак / The Witcher сериал

Лицензия

ПШазам

ОК

Оно 2

iTunes

30
pack

Вам бонус

ВАЖНО

!!Акция!!

Alien_RageХит недели

RePack

Resident Evil 21

ИГРА 18+

pack

RePack

jed

!!Акция!!

Alien_Rage

RePack

fifa19

RePack

Assassins Creed: Odyssey

RePack

NEED FOR SPEED™ PAYBACK

4 сезон

9 сезон

Бесстыжие 9 сезон

Все сериалы

все сериалы на PB.wtf

RePack

FAR CRY 5
  

Студент со связями / The Preppie Connection (Джозеф Кастело) [2015, драма, криминал, WEB-DLRip] Любительский (двухголосый) (Без рекламы) pb.wtf

Студент со связями через торрент pb.wtf

Размер: 1.38 GB | Добавлен: 3 года 9 мес. назад | Торрент скачан:159 раз
Скачать  

09-04-2016 19:42 Студент со связями Скачать торрент  

Студент со связями / The Preppie Connection

  • Год выхода: 2015
  • Жанр: драма, криминал
  • Страна: Пуэрто Рико, США
  • Продолжительность: 01:36:54
  • Перевод: Любительский (двухголосый)
  • Примечание: релиз без рекламы
  • Режиссер: Джозеф Кастело
  • В ролях:

    Люси Фрай (Alex Hayes), Сэмюэл Пейдж (Mr. Jennings), Томас Манн (Tobias Hammel), Эми Харгривз (Ingrid), Логан Хаффман (Ellis Tynes), Билл Сейдж (Mike Hammel), Джессика Рот (Laura), Марко Кака (Waiter), Райан Уорд (Piper), Хемки Мадера (Raul), Кинэн Джолифф (Topper), Роберт Горри (Ben)


  • Учащийся частной школы использует свои связи для создания сети распространения наркотиков.

  • Качество: WEB-DLRip
  • Формат: AVI
  • Видео кодек: XviD
  • Аудио кодек: AC3
  • Видео: XviD, 720x304 (2.35:1), 1639 kbps, 23,976 fps, 0,312 bpp
  • Аудио №1: русский / AC3 / 2.0 / 48 kHz / 192 kbps / 16 bit
  • Аудио №2: английский / AC3 / 5.1 / 48 kHz / 192 kbps / 16 bit

    Код:

    General
    Complete name                            : H:\Student.so.svjazjami.2015.L2.WEB-DLRip.avi
    Format                                   : AVI
    Format/Info                              : Audio Video Interleave
    File size                                : 1.38 GiB
    Duration                                 : 1h 36mn
    Overall bit rate                         : 2 038 Kbps
    Writing application                      : VirtualDubMod 1.5.10.3 | www.virtualdub-fr.org || (build 2550/release)
    Writing library                          : VirtualDubMod build 2550/release

    Video
    ID                                       : 0
    Format                                   : MPEG-4 Visual
    Format profile                           : Advanced Simple@L5
    Format settings, BVOP                    : 2
    Format settings, QPel                    : No
    Format settings, GMC                     : No warppoints
    Format settings, Matrix                  : Default (H.263)
    Codec ID                                 : XVID
    Codec ID/Hint                            : XviD
    Duration                                 : 1h 36mn
    Bit rate                                 : 1 640 Kbps
    Width                                    : 720 pixels
    Height                                   : 304 pixels
    Display aspect ratio                     : 2.35:1
    Frame rate                               : 23.976 fps
    Color space                              : YUV
    Chroma subsampling                       : 4:2:0
    Bit depth                                : 8 bits
    Scan type                                : Progressive
    Compression mode                         : Lossy
    Bits/(Pixel*Frame)                       : 0.312
    Stream size                              : 1.11 GiB (80%)
    Writing library                          : XviD 66

    Audio #1
    ID                                       : 1
    Format                                   : AC-3
    Format/Info                              : Audio Coding 3
    Mode extension                           : CM (complete main)
    Codec ID                                 : 2000
    Duration                                 : 1h 36mn
    Bit rate mode                            : Constant
    Bit rate                                 : 192 Kbps
    Channel(s)                               : 2 channels
    Channel positions                        : Front: L R
    Sampling rate                            : 48.0 KHz
    Bit depth                                : 16 bits
    Compression mode                         : Lossy
    Stream size                              : 133 MiB (9%)
    Alignment                                : Split accross interleaves
    Interleave, duration                     : 42 ms (1.00 video frame)
    Interleave, preload duration             : 500 ms

    Audio #2
    ID                                       : 2
    Format                                   : AC-3
    Format/Info                              : Audio Coding 3
    Mode extension                           : CM (complete main)
    Codec ID                                 : 2000
    Duration                                 : 1h 36mn
    Bit rate mode                            : Constant
    Bit rate                                 : 192 Kbps
    Channel(s)                               : 6 channels
    Channel positions                        : Front: L C R, Side: L R, LFE
    Sampling rate                            : 48.0 KHz
    Bit depth                                : 16 bits
    Compression mode                         : Lossy
    Stream size                              : 133 MiB (9%)
    Alignment                                : Split accross interleaves
    Interleave, duration                     : 42 ms (1.00 video frame)
    Interleave, preload duration             : 500 ms

    Скриншоты:


    © Оформление by -Lexx- pb.wtf



  • Скачать Студент со связями через торрент http://pic.kartinco.top/images/6/stazu.jpg Скачать фильм Студент со связями через торрент бесплантно в хорошем качестве qw.png Учащийся частной школы использует свои связи для создания сети распространения ... 8.5 10 6
    Торрент: Зарегистрирован [2016-04-09 19:42] · скачан: 159 раз
    Статус: T временная
    Размер: 1.38 GB
    Как cкачать? Как скачать Студент со связями через торрент | qTorrent

    28-11-2019 20:33  

    Отключить всю рекламу на сайте

      Дорогой пользователь! Огромная просьба, поблагодарите релизера, оцените раздачу и оставьте свои комментарий, если Вы скачали Студент со связями через торрент бесплатно! Внесите свою лепту в развитие PiratBit!
      Комментировать посты могут только пользователи прошедшие не сложную регистрацию
      Показать сообщения:    

      Студент со связями через торрент
      Скачать бесплатно Студент со связями
      Студент со связями скачать торрент
      Студент со связями смотреть онлайн
      Cкачать фильм Студент со связями бесплатно
      Студент со связями скачать торрент в хорошем качестве
      Студент со связями смотреть онлайн бесплатно в хорошем качестве


      Вы не можете начинать темы
      Вы не можете отвечать на сообщения
      Вы не можете редактировать свои сообщения
      Вы не можете удалять свои сообщения
      Вы не можете голосовать в опросах
      Вы не можете прикреплять файлы к сообщениям
      Вы можете скачивать файлы