Ссылка на приватное зеркало нашего сайта всего за 1$. Внимание количество ограничено!!!

2 сезон

iTunes

1 сезон

1

2 сезон

2 сезон

iTunes

1 сезон

RePack

30

Ultimate

ВАЖНО

ИГРА 18+

pack

RePack

MK11
pack

Забери бонус

RePack

jed

!!Акция!!

Alien_Rage

RePack

fifa19

RePack

Assassins Creed: Odyssey

RePack

NEED FOR SPEED™ PAYBACK

4 сезон

9 сезон

Бесстыжие 9 сезон

Все сериалы

все сериалы на PB.wtf

RePack

FAR CRY 5
  

Последний обряд / Demonic (Уилл Кэнон) [2015 г., Ужасы, триллер, BDRip 720p] DUB [Лицензия] pb.wtf

Последний обряд через торрент pb.wtf

Размер: 4.65 GB | Добавлен: 4 года 7 мес. назад | Торрент скачан:119 раз
Скачать  

10-04-2016 16:36 Последний обряд Скачать торрент  

Последний обряд / Demonic
Год выпуска » 2015
Страна » США, Великобритания
Жанр » Ужасы, триллер
Продолжительность » 01:23:31
Перевод » Профессиональный (полное дублирование)
Субтитры » Отсутствуют

В ролях
» Мария Белло, Фрэнк Грилло, Коуди Хорн, Дастин Миллиган, Меган Парк, Скотт Мехловиц, Аарон Ю, Алекс Гуд, Эштон Ли, Терренс Розмор


Режиссёр
» Уилл Кэнон
Описание:
» Жуткое убийство происходит в заброшенном доме. Полиция обнаруживает три трупа и одного выжившего свидетеля. Он рассказывает, что его друзья погибли во время спиритического сеанса.

• Качество » BDRip 720p
• Формат » MKV
• Видео кодек » AVC
• Аудио кодек » AC3,DTS
• Видео » MPEG-4 AVC,1280x532, 23.976 fps, 6060 Кбит/сек
• Аудио » Русский (AC-3/ 6 ch / 448 kbps / 48,0 КГц / 16 bit )
• Аудио » Английский (DTS / 6 ch / 1510 kbps / 48,0 КГц / 16 bit)




Бюджет: $3 000 000
Сборы в Мире: $3 387 774
Сборы в России: $143 699
Дата мировой премьеры: 12 февраля 2015
Дата российской премьеры: 21 января 2016, «Экспонента»
Общее
Уникальный идентификатор : 224254132956182111005004525019714899341 (0xA8B5C6652C82D459B1D8C0E0E3094D8D)
Полное имя : F:\Demonic.2015.D.720p.BDRip.mkv
Формат : Matroska
Версия формата : Version 4 / Version 2
Размер файла : 4,65 Гбайт
Продолжительность : 1 ч. 23 м.
Общий поток : 8009 Кбит/сек
Название фильма : Rustorrents.info
Дата кодирования : UTC 2016-04-08 04:56:50
Программа кодирования : mkvmerge v6.1.0 ('Old Devil') built on Mar 4 2013 09:10:42
Библиотека кодирования : libebml v1.3.0 + libmatroska v1.4.0

Видео
Идентификатор : 1
Формат : AVC
Формат/Информация : Advanced Video Codec
Профиль формата : High@L4.1
Параметр CABAC формата : Да
Параметр ReFrames формата : 12 кадров
Идентификатор кодека : V_MPEG4/ISO/AVC
Продолжительность : 1 ч. 23 м.
Битрейт : 6060 Кбит/сек
Ширина : 1280 пикселей
Высота : 532 пикселя
Соотношение сторон : 2,40:1
Режим частоты кадров : Постоянный
Частота кадров : 23,976 кадра/сек
Цветовое пространство : YUV
Субдискретизация насыщенности : 4:2:0
Битовая глубина : 8 бит
Тип развёртки : Прогрессивная
Бит/(Пиксели*Кадры) : 0.371
Размер потока : 3,42 Гбайт (74%)
Библиотека кодирования : x264 core 146 r2538 121396c
Настройки программы : cabac=1 / ref=12 / deblock=1:-3:-2 / analyse=0x3:0x113 / me=umh / subme=10 / psy=1 / psy_rd=1.00:0.15 / mixed_ref=1 / me_range=48 / chroma_me=1 / trellis=2 / 8x8dct=1 / cqm=0 / deadzone=21,11 / fast_pskip=0 / chroma_qp_offset=-3 / threads=12 / lookahead_threads=3 / sliced_threads=0 / nr=0 / decimate=1 / interlaced=0 / bluray_compat=0 / constrained_intra=0 / bframes=11 / b_pyramid=2 / b_adapt=2 / b_bias=0 / direct=1 / weightb=1 / open_gop=0 / weightp=2 / keyint=240 / keyint_min=23 / scenecut=40 / intra_refresh=0 / rc_lookahead=40 / rc=2pass / mbtree=1 / bitrate=6060 / ratetol=1.0 / qcomp=0.60 / qpmin=0 / qpmax=69 / qpstep=4 / cplxblur=20.0 / qblur=0.5 / vbv_maxrate=40000 / vbv_bufsize=48000 / nal_hrd=none / filler=0 / ip_ratio=1.40 / aq=1:1.00
Язык : English
Default : Да
Forced : Нет
Основные цвета : BT.709
Характеристики трансфера : BT.709
Коэффициенты матрицы : BT.709

Аудио #1
Идентификатор : 2
Формат : AC-3
Формат/Информация : Audio Coding 3
Расширение режима : CM (complete main)
Параметр Endianness формата : Big
Идентификатор кодека : A_AC3
Продолжительность : 1 ч. 23 м.
Вид битрейта : Постоянный
Битрейт : 448 Кбит/сек
Каналы : 6 каналов
Расположение каналов : Front: L C R, Side: L R, LFE
Частота : 48,0 КГц
Битовая глубина : 16 бит
Метод сжатия : С потерями
Задержка видео : 8 мс.
Размер потока : 266 Мбайт (6%)
Язык : Russian
Default : Да
Forced : Да

Аудио #2
Идентификатор : 3
Формат : DTS
Формат/Информация : Digital Theater Systems
Режим : 16
Параметр Endianness формата : Big
Идентификатор кодека : A_DTS
Продолжительность : 1 ч. 23 м.
Вид битрейта : Постоянный
Битрейт : 1509 Кбит/сек
Каналы : 6 каналов
Расположение каналов : Front: L C R, Side: L R, LFE
Частота : 48,0 КГц
Битовая глубина : 24 бит
Метод сжатия : С потерями
Размер потока : 897 Мбайт (19%)
Язык : English
Default : Нет
Forced : Нет

Меню
00:00:00.000 : en:00:00:00.000
00:10:11.694 : en:00:10:11.694
00:21:08.058 : en:00:21:08.058
00:30:12.978 : en:00:30:12.978
00:38:57.085 : en:00:38:57.085
00:54:06.827 : en:00:54:06.827
01:08:17.927 : en:01:08:17.927
01:19:06.033 : en:01:19:06.033
[/code]
скриншот   скриншот   скриншот   скриншот  
pb.wtf



Скачать Последний обряд через торрент http://pic1.kartinco.top/images/10/qjilv.jpg Скачать фильм Последний обряд через торрент бесплантно в хорошем качестве Описание:» Жуткое убийство происходит в заброшенном доме. Полиция обнаруживает три трупа и одного выжившего свидетеля. Он рассказывает, что ... 10 10 4
Торрент: Зарегистрирован [2016-04-10 16:36] · скачан: 119 раз
Статус: √ проверено
Размер: 4.65 GB
Как cкачать? Как скачать Последний обряд через торрент | qTorrent

% Раздел Тема Автор DL S | L
Фильмы 2015 [DVDrip, WEB-DLRip, HDrip] [ 1.46 GB ] Последний обряд / Demonic [2015 BDRip] - [] Twi7ter Скачать
2 | 0
Фильмы 2015 [DVDrip, WEB-DLRip, HDrip] [ 1.37 GB ] Последний обряд / Demonic [2015 HDRip] DUB [] $-DRON-$ Скачать
1 | 0
Фильмы 2015 [DVDrip, WEB-DLRip, HDrip] [ 1.46 GB ] Последний обряд / Demonic [2015 BDRip-AVC от sokol_ok] DUB sokol_ok Скачать
2 | 0
Фильмы [HD 720p, 1080p] (Хороший звук DUB, MVO) [ 8.39 GB ] Последний обряд / Demonic [2015 BDRip 1080p] DUB Ворон Скачать
1 | 0
Фильмы 2015 [DVDrip, WEB-DLRip, HDrip] [ 744 MB ] Последний обряд / Demonic [2015 HDRip] DUB [] Leonardo'D Скачать
1 | 0

28-11-2019 20:33  

Отключить всю рекламу на сайте

    Дорогой пользователь! Огромная просьба, поблагодарите релизера, оцените раздачу и оставьте свои комментарий, если Вы скачали Последний обряд через торрент бесплатно! Внесите свою лепту в развитие PiratBit!
    Комментировать посты могут только пользователи прошедшие не сложную регистрацию
    Показать сообщения:    

    Последний обряд через торрент
    Скачать бесплатно Последний обряд
    Последний обряд скачать торрент
    Последний обряд смотреть онлайн
    Cкачать фильм Последний обряд бесплатно
    Последний обряд скачать торрент в хорошем качестве
    Последний обряд смотреть онлайн бесплатно в хорошем качестве


    Вы не можете начинать темы
    Вы не можете отвечать на сообщения
    Вы не можете редактировать свои сообщения
    Вы не можете удалять свои сообщения
    Вы не можете голосовать в опросах
    Вы не можете прикреплять файлы к сообщениям
    Вы можете скачивать файлы