Ссылка на приватное зеркало нашего сайта всего за 1$. Внимание количество ограничено!!!

2 сезон

iTunes

1 сезон

1

2 сезон

2 сезон

iTunes

1 сезон

RePack

30

Ultimate

ВАЖНО

ИГРА 18+

pack

RePack

MK11
pack

Забери бонус

RePack

jed

!!Акция!!

Alien_Rage

RePack

fifa19

RePack

Assassins Creed: Odyssey

RePack

NEED FOR SPEED™ PAYBACK

4 сезон

9 сезон

Бесстыжие 9 сезон

Все сериалы

все сериалы на PB.wtf

RePack

FAR CRY 5
  

Дрожь земли 5: Кровное родство / Tremors 5: Bloodlines (Дон Майкл Пол) [2015 г., ужасы, фантастика, боевик, вестерн, HDRip, Дубляж "Лицензия"] pb.wtf

Дрожь земли 5: Кровное родство через торрент pb.wtf

Размер: 2.04 GB | Добавлен: 4 года 7 мес. назад | Торрент скачан:80 раз
Скачать  

12-04-2016 17:58 Дрожь земли 5: Кровное родство Скачать торрент  

Дрожь земли 5: Кровное родство / Tremors 5: Bloodlines
Год выпуска: 2015
Страна: США / Universal 1440 Entertainment
Жанр: ужасы, фантастика, боевик, вестерн
Продолжительность: 01:39:02
Перевод: Дубляж (Лицензия)

Режиссер: Дон Майкл Пол

IMDB 5.40 (2802)


В ролях: Майкл Гросс, Джейми Кеннеди, Брэндон Оре, Натали Бекер, Эммануэль Кастис, Зак Хендрикз, Дэниэл Дженкс, Лоуренс Джофф, Эрнест Ндлову, Реа Рангака

Описание: Гигантские черви-людоеды, известные как Грабоиды, терроризируют жителей Южной Африки. И самое страшное — это то, что Грабоиды со временем превратились в еще более опасных тварей...

Качество: HDRip
Формат: AVI
Видео кодек: XviD
Аудио кодек: AC3
Видео: MPEG4, XviD, 720x400 (16:9), 23.976 fps, 2 491 Kbps (0.361 bit/pixel)
Аудио: AC-3, 48.0 KHz, 6 ch, 448 Kbps, CBR
скриншот   скриншот   скриншот   скриншот   скриншот   скриншот  

Общее
Полное имя : F:\кино\Дрожь земли 5. Кровное родство.2015.D.HDRip.avi
Формат : AVI
Формат/Информация : Audio Video Interleave
Профиль формата : OpenDML
Размер файла : 2,04 Гбайт
Продолжительность : 1 ч. 39 м.
Общий поток : 2951 Кбит/сек
Программа кодирования : VirtualDubMod 1.5.10.3 | www.virtualdub-fr.org || (build 2550/release)
Библиотека кодирования : VirtualDubMod build 2550/release

Видео
Идентификатор : 0
Формат : MPEG-4 Visual
Профиль формата : Advanced Simple@L5
Параметр BVOP формата : 2
Параметр QPel формата : Нет
Параметр GMC формата : Без точки перехода
Параметр матрицы формата : Default (H.263)
Идентификатор кодека : XVID
Идентификатор кодека/Подсказка : XviD
Продолжительность : 1 ч. 39 м.
Битрейт : 2491 Кбит/сек
Ширина : 720 пикселей
Высота : 400 пикселей
Соотношение сторон : 16:9
Частота кадров : 23,976 (23976/1000) кадра/сек
Цветовое пространство : YUV
Субдискретизация насыщенности : 4:2:0
Битовая глубина : 8 бит
Тип развёртки : Прогрессивная
Метод сжатия : С потерями
Бит/(Пиксели*Кадры) : 0.361
Размер потока : 1,72 Гбайт (84%)
Библиотека кодирования : XviD 1.2.1 (UTC 2008-12-04)

Аудио
Идентификатор : 1
Формат : AC-3
Формат/Информация : Audio Coding 3
Расширение режима : CM (complete main)
Параметр Endianness формата : Big
Идентификатор кодека : 2000
Продолжительность : 1 ч. 38 м.
Вид битрейта : Постоянный
Битрейт : 448 Кбит/сек
Каналы : 6 каналов
Расположение каналов : Front: L C R, Side: L R, LFE
Частота : 48,0 КГц
Частота кадров : 31,250 кадров/сек (1536 spf)
Метод сжатия : С потерями
Размер потока : 317 Мбайт (15%)
Выравнивание : Разделение по промежуткам
Продолжительность промежутка : 42 мс. (1,00 видеокадр)
Время предзагрузки промежутка : 500 мс.

pb.wtf



Скачать Дрожь земли 5: Кровное родство через торрент http://pic.kartinco.top/images/11/kxfjj.jpg Скачать фильм Дрожь земли 5: Кровное родство через торрент бесплантно в хорошем качестве Описание: Гигантские черви-людоеды, известные как Грабоиды, терроризируют жителей Южной Африки. И самое страшное — это то, что Грабоиды со ... 8.4 10 5
Торрент: Зарегистрирован [2016-04-12 17:58] · скачан: 80 раз
Статус: √ проверено
Размер: 2.04 GB
Как cкачать? Как скачать Дрожь земли 5: Кровное родство через торрент | qTorrent

% Раздел Тема Автор DL S | L
Фильмы 2015 [DVDrip, WEB-DLRip, HDrip] [ 2.18 GB ] Дрожь земли 5: Кровное родство / Tremors 5: Bloodlines [2015 BDRip-AVC от sokol_ok] DUB sokol_ok Скачать
2 | 0
Фильмы 2015 [DVDrip, WEB-DLRip, HDrip] [ 1.45 GB ] Дрожь земли 5: Кровное родство / Tremors 5: Bloodlines [2015 BDRip-AVC от sokol_ok] DUB sokol_ok Скачать
2 | 0
Фильмы (Blu-ray, BD-Remux, HDDVD) [ 37.89 GB ] Дрожь земли 5: Кровное родство / Tremors 5: Bloodlines [2015 Blu-ray] Russian Mafia Скачать
1 | 0
Фильмы 2015 [DVDrip, WEB-DLRip, HDrip] [ 751 MB ] Дрожь земли 5: Кровное родство / Tremors 5: Bloodlines [2015 HDRip by _Один_777] Dub () Один 777 Скачать
1 | 0
Фильмы 2015 [DVDrip, WEB-DLRip, HDrip] [ 1.46 GB ] Дрожь земли 5: Кровное родство / Tremors 5: Bloodlines [2015 BDRip] DUB Twi7ter Скачать
1 | 0
Фильмы 2015 [DVDrip, WEB-DLRip, HDrip] [ 1.37 GB ] Дрожь земли 5: Кровное родство / Tremors 5: Bloodlines [2015 HDRip] diletant Скачать
1 | 0
Фильмы [HD 720p, 1080p] (Хороший звук DUB, MVO) [ 10.84 GB ] Дрожь земли 5: Кровное родство / Tremors 5: Bloodlines [2015 BDRip ] Бумер Скачать
1 | 0

28-11-2019 20:33  

Отключить всю рекламу на сайте

12-04-2016 18:44 Дрожь земли 5: Кровное родство Скачать торрент  

Грабоиды со временем превратились в еще более опасных тварей...

Мутировали в хохлов и сперли весь газ во вселенной.

Бред корочеpb.wtf



12-04-2016 21:50 Дрожь земли 5: Кровное родство Скачать торрент  

Фильм для поклонников этой мути)pb.wtf



12-04-2016 22:41 Дрожь земли 5: Кровное родство Скачать торрент  

bober100 писал(а):

Фильм для поклонников этой мути)

ну, первая часть была хороша. вторая так себе, а дальше весьма не оченьpb.wtf



13-04-2016 10:30 Дрожь земли 5: Кровное родство Скачать торрент  

2 из 10pb.wtf



    Дорогой пользователь! Огромная просьба, поблагодарите релизера, оцените раздачу и оставьте свои комментарий, если Вы скачали Дрожь земли 5: Кровное родство через торрент бесплатно! Внесите свою лепту в развитие PiratBit!
    Комментировать посты могут только пользователи прошедшие не сложную регистрацию
    Показать сообщения:    

    Дрожь земли 5: Кровное родство через торрент
    Скачать бесплатно Дрожь земли 5: Кровное родство
    Дрожь земли 5: Кровное родство скачать торрент
    Дрожь земли 5: Кровное родство смотреть онлайн
    Cкачать фильм Дрожь земли 5: Кровное родство бесплатно
    Дрожь земли 5: Кровное родство скачать торрент в хорошем качестве
    Дрожь земли 5: Кровное родство смотреть онлайн бесплатно в хорошем качестве


    Вы не можете начинать темы
    Вы не можете отвечать на сообщения
    Вы не можете редактировать свои сообщения
    Вы не можете удалять свои сообщения
    Вы не можете голосовать в опросах
    Вы не можете прикреплять файлы к сообщениям
    Вы можете скачивать файлы