Ссылка на приватное зеркало всего за 1$. Внимание количество ограничено!!!

OK

1+1

iTunes

мы

OK

1

WEB-DLRip

Джокер

Пифагор

Ведьмак / The Witcher сериал

Лицензия

ПШазам

ОК

Оно 2

iTunes

30
pack

Вам бонус

ВАЖНО

!!Акция!!

Alien_RageХит недели

RePack

Resident Evil 21

ИГРА 18+

pack

RePack

jed

!!Акция!!

Alien_Rage

RePack

fifa19

RePack

Assassins Creed: Odyssey

RePack

NEED FOR SPEED™ PAYBACK

4 сезон

9 сезон

Бесстыжие 9 сезон

Все сериалы

все сериалы на PB.wtf

RePack

FAR CRY 5
  

Карьер / The Carrier (Энтони Вудли) [2015, фантастика, боевик, триллер, WEB-DLRip, Любительский (двухголосый) Релиз без рекламы!!! pb.wtf

Карьер через торрент pb.wtf

Размер: 1.37 GB | Добавлен: 3 года 9 мес. назад | Торрент скачан:184 раза
Скачать  

10-04-2016 13:47 Карьер Скачать торрент  


Карьер / The Carrier


ИНФОРМАЦИЯ:
Год выпуска:2015
Страна: Великобритания
Жанр: фантастика, боевик, триллер, драма
Продолжительность: 01:28:25
Перевод: Любительский (двухголосый)
Режиссер: Энтони Вудли

В Ролях:


Джек Гордон (Craig Turnpike), Джо Диксон (Eric Mason), Эдмунд Кингсли (Tobias Black), Жозефин Тэйлор (Terri Holmes), Карен Брайсон (Maria Adams), Люси-Джейн Куинлэн (дополнительные голоса, озвучка), Джеймс Пэйтон (дополнительные голоса, озвучка), Ребекка Джонсон (Jess Ayres), Зора Бишоп (Kate Hall), Люк Хили (James Ayres), Джеймс Литтлвуд (Ewan Thompson), Эндрю Френч (Kevin Adams)

Описание:
Англия была захвачена пандемии без видимой лечения . По мере того как инфекция продолжает распространяться , безопасность - для немногих счастливчиков - вырисовывается в виде поврежденного боинга 747. Это только после того, как самолет находится в воздухе , что оставшиеся в живых обнаруживают инфекцию сделали это на полет с ними.

  • Мировая премьера:15 июля 2015

    ТЕХ.ДАННЫЕ:
    Качество: WEB-DLRip
    Формат: AVI
    Видео: XviD, 720x304 (2.35:1), 1735 kbps, 24 fps, 0,330 bpp
    Аудио №1: AC3 / 2.0 / 48 kHz / 192 kbps / Русский
    Аудио №2: AC3 / 2.0 / 48 kHz / 192 kbps / Английский


    General
    Complete name : D:\Торент\The.Carrier.2016.L2.WEB-DLRip.avi
    Format : AVI
    Format/Info : Audio Video Interleave
    File size : 1.37 GiB
    Duration : 1h 28mn
    Overall bit rate : 2 218 Kbps
    Writing application : VirtualDubMod 1.5.10.3 | www.virtualdub-fr.org || (build 2550/release)
    Writing library : VirtualDubMod build 2550/release

    Video
    ID : 0
    Format : MPEG-4 Visual
    Format profile : Advanced Simple@L5
    Format settings, BVOP : 2
    Format settings, QPel : No
    Format settings, GMC : No warppoints
    Format settings, Matrix : Default (H.263)
    Muxing mode : Packed bitstream
    Codec ID : XVID
    Codec ID/Hint : XviD
    Duration : 1h 28mn
    Bit rate : 1 735 Kbps
    Width : 720 pixels
    Height : 304 pixels
    Display aspect ratio : 2.35:1
    Frame rate : 24.000 fps
    Color space : YUV
    Chroma subsampling : 4:2:0
    Bit depth : 8 bits
    Scan type : Progressive
    Compression mode : Lossy
    Bits/(Pixel*Frame) : 0.330
    Stream size : 1.07 GiB (78%)
    Writing library : XviD 66

    Audio #1
    ID : 1
    Format : AC-3
    Format/Info : Audio Coding 3
    Mode extension : CM (complete main)
    Codec ID : 2000
    Duration : 1h 28mn
    Bit rate mode : Constant
    Bit rate : 192 Kbps
    Channel(s) : 2 channels
    Channel positions : Front: L R
    Sampling rate : 48.0 KHz
    Bit depth : 16 bits
    Compression mode : Lossy
    Stream size : 121 MiB (9%)
    Alignment : Split accross interleaves

    Audio #2
    ID : 2
    Format : AC-3
    Format/Info : Audio Coding 3
    Mode extension : CM (complete main)
    Codec ID : 2000
    Duration : 1h 28mn
    Bit rate mode : Constant
    Bit rate : 192 Kbps
    Channel(s) : 2 channels
    Channel positions : Front: L R
    Sampling rate : 48.0 KHz
    Bit depth : 16 bits
    Compression mode : Lossy
    Stream size : 121 MiB (9%)
    Alignment : Split accross interleaves
    Скриншоты:

    © Оформление by .::Ворон::.
    pb.wtf



  • Скачать Карьер через торрент http://pic.kartinco.top/images/6/ordi9.jpg Скачать фильм Карьер через торрент бесплантно в хорошем качестве Описание: Англия была захвачена пандемии без видимой лечения . По мере того как инфекция продолжает распространяться , безопасность - для ... 5.7 10 6
    Торрент: Зарегистрирован [2016-04-10 13:47] · скачан: 184 раз
    Статус: T временная
    Размер: 1.37 GB
    Как cкачать? Как скачать Карьер через торрент | qTorrent

    28-11-2019 20:33  

    Отключить всю рекламу на сайте

    10-04-2016 14:10 Карьер Скачать торрент  

    Вот это описание... Велик могучим русский языка...pb.wtf



    10-04-2016 14:44 Карьер Скачать торрент  

    особенно перевод названияpb.wtf



    11-04-2016 00:15 Карьер Скачать торрент  

    Фильм называется Носитель (Разносчик)
    Описание:
    Мир окончательно сошёл с ума, неведомый вирус стёр Лондон с лица земли и распространяется по всей планете. Лондон охвачен паникой и волной террора, спецназ без промедления уничтожает всех разносчиков вируса, хотя эта мера совершенно не помогает, поэтому, махнув рукой на спасение цивилизации, люди просто убивают друг друга. Кучка выживших пытается прорваться в заповедную зелёную зону, карантин где-то на севере континента, хотя особой уверенности, что незараженные территории ещё остались, нет. Аварийная посадка на удалённом от столицы аэродроме, становится очередной пробой на прочность для напуганных людей, которых становится всё меньше. А те, кто ещё жив и не заражён, полны злобы и ненависти.pb.wtf



    12-04-2016 16:56 Карьер Скачать торрент  

    Max240280 писал(а):

    Вот это описание... Велик могучим русский языка...

    ахахахаха омг что же он написал))) pb.wtf



    13-04-2016 11:17 Карьер Скачать торрент  

    samson450173 писал(а):

    Фильм называется Носитель (Разносчик)
    Описание:
    Мир окончательно сошёл с ума, неведомый вирус стёр Лондон с лица земли и распространяется по всей планете. Лондон охвачен паникой и волной террора, спецназ без промедления уничтожает всех разносчиков вируса, хотя эта мера совершенно не помогает, поэтому, махнув рукой на спасение цивилизации, люди просто убивают друг друга. Кучка выживших пытается прорваться в заповедную зелёную зону, карантин где-то на севере континента, хотя особой уверенности, что незараженные территории ещё остались, нет. Аварийная посадка на удалённом от столицы аэродроме, становится очередной пробой на прочность для напуганных людей, которых становится всё меньше. А те, кто ещё жив и не заражён, полны злобы и ненависти.

    хоть своими словами описал бы, а не с кинопоиска бралpb.wtf



      Дорогой пользователь! Огромная просьба, поблагодарите релизера, оцените раздачу и оставьте свои комментарий, если Вы скачали Карьер через торрент бесплатно! Внесите свою лепту в развитие PiratBit!
      Комментировать посты могут только пользователи прошедшие не сложную регистрацию
      Показать сообщения:    

      Карьер через торрент
      Скачать бесплатно Карьер
      Карьер скачать торрент
      Карьер смотреть онлайн
      Cкачать фильм Карьер бесплатно
      Карьер скачать торрент в хорошем качестве
      Карьер смотреть онлайн бесплатно в хорошем качестве


      Вы не можете начинать темы
      Вы не можете отвечать на сообщения
      Вы не можете редактировать свои сообщения
      Вы не можете удалять свои сообщения
      Вы не можете голосовать в опросах
      Вы не можете прикреплять файлы к сообщениям
      Вы можете скачивать файлы