Всегда рабочее зеркало без VPN и Proxy просто перед .vidak.icu напиши любое слово или цифру, Пример http://ldou.vidak.icu

MVO

2 сезон

1 сезон

1

1 сезон

iTunes

2 сезон

13

1 сезон

Распродажа

pack

Рекомендуем

Пиратка

30

ВАЖНО

RePack

MK11

RePack

jed

RePack

fifa19

RePack

RDR2

RePack

NEED FOR SPEED™ PAYBACK

Кинопоиск HD

6 сезон

 Острые козырьки 6 сезон

Все сериалы

все сериалы на PB.wtf

RePack

FAR CRY 5

Anonymous, нам критически не хватает 5601 руб. на оплату серверов и переферии за Апрель, помоги нам пожалуйста, вся надежда только на тебя. В благодарность мы отключим тебе всю рекламу на сайте!

×
  
Magnet ссылка

Они похожи на людей / They Look Like People (Perry Blackshear) [2015, триллер, драма, детектив, WEB-DLRip, Любительский (многоголосый) pb.wtf

Они похожи на людей через торрент pb.wtf

Размер: 1.37 GB | Добавлен: 6 лет 1 мес. назад | Торрент скачан:225 раз
Смотреть онлайн Они похожи на людей | Скачать    Ребята, помогите собрать деньги на оплату серверов!!!

15-04-2016 11:24 Они похожи на людей Скачать торрент  


Они похожи на людей / They Look Like People


ИНФОРМАЦИЯ:
Год выпуска:2015
Страна: США
Жанр: триллер, драма, детектив
Продолжительность: 00:22:57
Перевод: Любительский (многоголосый)
Режиссер: Perry Blackshear

В Ролях:


Маклеод Эндрюс (Wyatt), Ивэн Дюмошель (Christian), Маргарет Йинг Дрэйк (Mara), Мик Касале (Psychiatrist), Елена Гринли (Sandy)

Описание:
Подозревая, что люди вокруг него превращаются в злобных тварей, у главного героя возникают вопросы: "А люди ли они вообще и как защитить своего единственного друга от надвигающейся войны"?,... а может и от самого себя....

  • Мировая премьера:25 января 2015

    ТЕХ.ДАННЫЕ:
    Качество: WEB-DLRip
    Формат: AVI
    Видео: DivX 5, 720x304 (2.35:1), 2051 kbps, 23,976 fps, 0,391 bpp
    Аудио: MP3 / 2.0 / 48 kHz / 320 kbps /


    General
    Complete name : D:\Торент\Oni.Pohogi.na.Ludey.2015.MVO.WEB-DLRip.14OOMB_KOSHERA.avi
    Format : AVI
    Format/Info : Audio Video Interleave
    File size : 1.37 GiB
    Duration : 1h 19mn
    Overall bit rate : 2 478 Kbps
    Writing application : VirtualDubMod 1.5.10.2 (build 2540/release)
    Writing library : VirtualDubMod build 2540/release

    Video
    ID : 0
    Format : MPEG-4 Visual
    Format settings, BVOP : 2
    Format settings, QPel : No
    Format settings, GMC : No warppoints
    Format settings, Matrix : Default (H.263)
    Muxing mode : Packed bitstream
    Codec ID : DX50
    Codec ID/Hint : DivX 5
    Duration : 1h 19mn
    Bit rate : 2 051 Kbps
    Width : 720 pixels
    Height : 304 pixels
    Display aspect ratio : 2.35:1
    Frame rate : 23.976 fps
    Color space : YUV
    Chroma subsampling : 4:2:0
    Bit depth : 8 bits
    Scan type : Progressive
    Compression mode : Lossy
    Bits/(Pixel*Frame) : 0.391
    Stream size : 1.13 GiB (83%)
    Writing library : DivX 3013

    Audio
    ID : 1
    Format : MPEG Audio
    Format version : Version 1
    Format profile : Layer 3
    Codec ID : 55
    Codec ID/Hint : MP3
    Duration : 1h 19mn
    Bit rate mode : Constant
    Bit rate : 320 Kbps
    Channel(s) : 2 channels
    Sampling rate : 48.0 KHz
    Compression mode : Lossy
    Stream size : 181 MiB (13%)
    Alignment : Split accross interleaves
    Скриншоты:

    © Оформление by .::Ворон::.
    pb.wtf
    !Ворон писал(а):

    Присутствуют вставки голосовой и текстовой рекламы!



  • Скачать Они похожи на людей через торрент https://pic1.kartinco.top/images/61/ordi9.jpg Скачать, смотреть онлайн Они похожи на людей бесплантно в хорошем качестве Описание: Подозревая, что люди вокруг него превращаются в злобных тварей, у главного героя возникают вопросы: "А люди ли они вообще и как ... 6.7 10 9
    Торрент: Зарегистрирован [2016-04-15 11:24] · скачан: 225 раз
    Статус: T временная
    Размер: 1.37 GB
    Как cкачать? Как скачать Они похожи на людей через торрент | UTorrent



    Последний раз редактировалось: Ворон (2016-04-15 12:10), всего редактировалось 1 раз

    28-11-2019 20:33  

    Отключить всю рекламу на сайте

      Дорогой пользователь! Огромная просьба, поблагодарите релизера, оцените раздачу и оставьте свои комментарий, если Вы скачали Они похожи на людей через торрент бесплатно!
      Комментировать посты могут только пользователи прошедшие не сложную регистрацию
      Показать сообщения:    

      Они похожи на людей через торрент
      Скачать бесплатно Они похожи на людей
      Они похожи на людей скачать торрент
      Они похожи на людей смотреть онлайн
      Cкачать фильм Они похожи на людей бесплатно
      Они похожи на людей скачать торрент в хорошем качестве
      Они похожи на людей смотреть онлайн бесплатно в хорошем качестве


      Вы не можете начинать темы
      Вы не можете отвечать на сообщения
      Вы не можете редактировать свои сообщения
      Вы не можете удалять свои сообщения
      Вы не можете голосовать в опросах
      Вы не можете прикреплять файлы к сообщениям
      Вы можете скачивать файлы