Ссылка на приватное зеркало нашего сайта всего за 1$. Внимание количество ограничено!!!

2 сезон

iTunes

1 сезон

1

2 сезон

2 сезон

iTunes

1 сезон

RePack

30

Новинка

ВАЖНО

ИГРА 18+

pack

RePack

MK11
pack

Забери бонус

RePack

jed

!!Акция!!

Alien_Rage

RePack

fifa19

RePack

Assassins Creed: Odyssey

RePack

NEED FOR SPEED™ PAYBACK

4 сезон

9 сезон

Бесстыжие 9 сезон

Все сериалы

все сериалы на PB.wtf

RePack

FAR CRY 5
  

Три дороги / Серии: 1-4 из 4 (Мирослав Малич) [2016, мелодрама, SATRip-AVC] pb.wtf

Три дороги через торрент pb.wtf

Размер: 2.53 GB | Добавлен: 4 года 7 мес. назад | Торрент скачан:291 раз
Скачать  

16-04-2016 15:19 Три дороги Скачать торрент  

Три дороги

Год выпуска: 2016
Производство: Россия,Телемастер, ABC Film и Film Stream
Жанр: мелодрама
Продолжительность: 00:47:00
Субтитры: нет


Режиссёр: Мирослав Малич

В ролях: Мария Куликова, Евгений Пронин, Ольга Арнтгольц, Всеволод Болдин, Андрей Егоров, Андрей Исаенко, Екатерина Вишнёвая, Наталья Доля, Ирина Новак, Владимир Осадчий, Анна Сырбу, Анна Топчий, Фатима Горбенко, Нина Антонова, Валентина Ищенко, Татьяна Глущенко, Никита Балев, Тимур Миколюк, Георгий Лещенко (II), София Котлярова, Даниил Якимчук, Даниил Кравченко, Тимофей Ребенок, Александр Пастух, Арсен Босенко, Лариса Яценко

Описание: 1974 год. Отец маленьких Славы и Сережи погибает в автокатастрофе, а мать, сойдя с ума от горя, уходит из дома. Братьев отдают в детдом, откуда несколько лет спустя семилетнего Сережу забирает богатая московская семья, незадолго до этого потерявшая маленького сына. Слава не может простить младшему брату предательства, долгие годы не общается с ним и всю привязанность переносит на детдомовского друга Кольку.



Качество: SATRip-AVC
Формат: MKV
Видео кодек: H.264
Аудио кодек: AC3
Видео: MPEG-4 AVC, 720х400,25fps,~1700 Кбит/сек,Bits/Pixel 0.236
Аудио: AC3, 48 kHz, ~192 Kbps, 2 канала
Общее
Уникальный идентификатор : 219292040538704553237938875849022024753 (0xA4FA1C59B6C902638C1C37886C5AAC31)
Полное имя : F:\Три дороги\Три дороги_01 серия rip by_Aleksan55.mkv
Формат : Matroska
Версия формата : Version 2
Размер файла : 641 Мбайт
Продолжительность : 47 м.
Общий поток : 1894 Кбит/сек
Дата кодирования : UTC 2016-04-16 12:13:10
Программа кодирования : mkvmerge v7.8.0 ('River Man') 32bit built on Apr 3 2015 12:11:22
Библиотека кодирования : libebml v1.3.1 + libmatroska v1.4.2

Видео
Идентификатор : 1
Формат : AVC
Формат/Информация : Advanced Video Codec
Профиль формата : High@L4.1
Параметр CABAC формата : Да
Параметр ReFrames формата : 12 кадров
Идентификатор кодека : V_MPEG4/ISO/AVC
Продолжительность : 47 м.
Битрейт : 1700 Кбит/сек
Ширина : 720 пикселей
Высота : 400 пикселей
Соотношение сторон : 16:9
Режим частоты кадров : Постоянный
Частота кадров : 25,000 кадров/сек
Цветовое пространство : YUV
Субдискретизация насыщенности : 4:2:0
Битовая глубина : 8 бит
Тип развёртки : Прогрессивная
Бит/(Пиксели*Кадры) : 0.236
Размер потока : 564 Мбайт (88%)
Библиотека кодирования : x264 core 146 r2538 121396c
Настройки программы : cabac=1 / ref=12 / deblock=1:-2:-2 / analyse=0x3:0x133 / me=umh / subme=9 / psy=1 / psy_rd=1.00:0.25 / mixed_ref=1 / me_range=32 / chroma_me=1 / trellis=2 / 8x8dct=1 / cqm=0 / deadzone=21,11 / fast_pskip=1 / chroma_qp_offset=-4 / threads=2 / lookahead_threads=4 / sliced_threads=0 / nr=0 / decimate=1 / interlaced=0 / bluray_compat=0 / constrained_intra=0 / bframes=12 / b_pyramid=2 / b_adapt=2 / b_bias=0 / direct=1 / weightb=1 / open_gop=0 / weightp=2 / keyint=250 / keyint_min=25 / scenecut=40 / intra_refresh=0 / rc_lookahead=40 / rc=2pass / mbtree=1 / bitrate=1700 / ratetol=1.0 / qcomp=0.60 / qpmin=0 / qpmax=69 / qpstep=4 / cplxblur=20.0 / qblur=0.5 / ip_ratio=1.40 / aq=1:1.20
Default : Да
Forced : Нет
Цветовой диапазон : Limited
Основные цвета : BT.601 PAL
Характеристики трансфера : BT.470 System B, BT.470 System G
Коэффициенты матрицы : BT.601

Аудио
Идентификатор : 2
Формат : AC-3
Формат/Информация : Audio Coding 3
Расширение режима : CM (complete main)
Параметр Endianness формата : Big
Идентификатор кодека : A_AC3
Продолжительность : 47 м.
Вид битрейта : Постоянный
Битрейт : 192 Кбит/сек
Каналы : 2 канала
Расположение каналов : Front: L R
Частота : 48,0 КГц
Метод сжатия : С потерями
Размер потока : 65,0 Мбайт (10%)
Default : Да
Forced : Нет
Внимание! Раздача ведётся путём добавления новых серий; при каждом добавлении создаётся новый торрент.
Чтобы начать докачку новой серии, пользователям необходимо сделать следующее:
1. Остановить скачивание;
2. Удалить старый торрент у себя из клиента (старые серии удалять не надо);
3. Скачать новый торрент и запустить его у себя в клиенте вместо старого, при этом указать клиенту путь в старую папку куда и должно происходить скачивание новых серий. Ваш клиент при этом должен произвести хеширование (проверку) старой папки и будет докачивать только те серии, которых у вас ещё нет. Старые серии при этом не удаляются, а продолжают раздаваться! Eсли вы уже удалили старые серии, то предотвратить повторную закачку старых серий можно, отжав галочку в соответствующих местах при запуске нового торрента.
Рекламы нет.Добавлена 3-4 серия.pb.wtf



Скачать Три дороги через торрент http://s017.radikal.ru/i404/1604/dd/713e3c44a46c.jpg Скачать фильм Три дороги через торрент бесплантно в хорошем качестве Описание: 1974 год. Отец маленьких Славы и Сережи погибает в автокатастрофе, а мать, сойдя с ума от горя, уходит из дома. Братьев отдают в ... 10 10 15
Торрент: Зарегистрирован [2016-04-16 21:33] · скачан: 291 раз
Статус: √ проверено
Размер: 2.53 GB
Как cкачать? Как скачать Три дороги через торрент | qTorrent



Последний раз редактировалось: aleksan55 (2016-04-16 21:33), всего редактировалось 2 раз(а)

28-11-2019 20:33  

Отключить всю рекламу на сайте

16-04-2016 15:43 Три дороги Скачать торрент  

лирическая комедия-Отец маленьких Славы и Сережи погибает в автокатастрофе, а мать, сойдя с ума от горя, уходит из дома. Братьев отдают в детдом.
-как то для комедии даже лирической описание очень грустное...pb.wtf



16-04-2016 17:15 Три дороги Скачать торрент  

bolvi68 писал(а):

лирическая комедия-Отец маленьких Славы и Сережи погибает в автокатастрофе, а мать, сойдя с ума от горя, уходит из дома. Братьев отдают в детдом.
-как то для комедии даже лирической описание очень грустное...

Делал с шаблона,забыл поменять жанр. pb.wtf



17-04-2016 11:27 Три дороги Скачать торрент  

Спасибо заценим!!!!!pb.wtf



    Дорогой пользователь! Огромная просьба, поблагодарите релизера, оцените раздачу и оставьте свои комментарий, если Вы скачали Три дороги через торрент бесплатно! Внесите свою лепту в развитие PiratBit!
    Комментировать посты могут только пользователи прошедшие не сложную регистрацию
    Показать сообщения:    

    Три дороги через торрент
    Скачать бесплатно Три дороги
    Три дороги скачать торрент
    Три дороги смотреть онлайн
    Cкачать фильм Три дороги бесплатно
    Три дороги скачать торрент в хорошем качестве
    Три дороги смотреть онлайн бесплатно в хорошем качестве


    Вы не можете начинать темы
    Вы не можете отвечать на сообщения
    Вы не можете редактировать свои сообщения
    Вы не можете удалять свои сообщения
    Вы не можете голосовать в опросах
    Вы не можете прикреплять файлы к сообщениям
    Вы можете скачивать файлы