Доктор Стрэндж

Лицензия

Добыча

Дубляж

Уэнсдэй

1 сезон

Тор

Дубляж

В эфире

Дубляж

Там, где раки поют

MVO

Властелин колец

1 сезон

Deluxe

pack

Рекомендуем

30

Пиратка

ВАЖНО

ВАЖНО

Ghostwire

Пиратка

jed

RePack

nioh2

RePack

RDR2

RePack

NEED FOR SPEED™ PAYBACK

RePack

скачать торрент

Кинопоиск HD

Острые козырьки 6 сезон

6 сезон

FAR CRY 6

RePack

скачать торрент

Лицензия

скачать торрент

MVO

1

1 сезон

скачать торрент

1 сезон

скачать торрент

Лицензия

  

Боец / Сезоны: 1-2 / Серии: 1-26 из 26 (Евгений Серов, Иван Криворучко мл.) [2004-2008 г., Боевик, драма, криминал, DVDRip] Оригинал

Боец через торрент pb.wtf

Размер: 13.88 GB | Добавлен: 3 года назад | Торрент скачан:9 раз
Смотреть онлайн | Скачать   

25-04-2016 10:14 Боец Скачать торрент  

Боец (1-2 сезоны)
Год выпуска: 2004-2008
Страна: Россия
Жанр: Боевик, драма, криминал
Продолжительность: 26 х ~ 00:45:00
Перевод: Оригинал
Субтитры: Нет

Режиссер: Евгений Серов, Иван Криворучко мл.

В ролях: Дмитрий Марьянов, Александр Носик, Андрей И, Алёна Яковлева, Рамиль Сабитов, Александр Ильин ст., Анна Снаткина, Вячеслав Шалевич, Эдуард Марцевич, Александр Пашутин, Юрий Шерстнёв, Шухрат Иргашев, Владимир Литвинов, Сергей Греков, Вячеслав Гришечкин, Владимир Гусев (II), Геннадий Венгеров, Владислав Дёмин, Евгений Серов, Дарья Лузина, Ирина Даниленко, Ян Цапник, Алексей Ошурков, Виктор Григорюк, Олег Васильков, Сергей Власов, Антон Эльдаров, Леонид Тимцуник, Владимир Горюшин, Игорь Гаспарян, Константин Соловьёв, Владимир Кошевой

Описание: Боец: Максим Паладин - морской пехотинец. Он был тяжело ранен, но сумел выкарабкаться с того света, чтобы остаться со своей любимой. Вика Варшавская всячески способствовала выздоровлению Максима и хочет выйти за него замуж. Она работает в самой обычной больнице, она тщательно скрывает, что является дочерью мультимиллионера. Ее отец - Павел Валерьянович Варшавский - когда-то жил от зарплаты до зарплаты, а потом уехал в Америку и там сказочно разбогател. Но здесь, в России, остались люди, которым он что-то должен. Правда, этим людям не нужно `что-то`, они хотят забрать все...

Боец 2: Рождение легенды: Эта история начинается в середине девяностых, за несколько лет до событий, описанных в первой части (сериал "Боец"). Конечно, дело происходит в Ростове - не реальном, а мифическом "бойцовском" городе, где обитают почти что былинные персонажи - таинственные, могучие, обуреваемые безумными страстями, и в то же время вполне социально определённые и узнаваемые. Легенду рассказывает всё тот же Дед, вечный скиталец по тюрьмам и пересылкам. Бывалый пройдоха, "битый каторжанин", обожающий красиво, со смаком, приврать, описывая малолеткам эпические приключения суперменов криминального мира. И в этот раз история начнётся с тюремного вагона, в котором Дед затягивает очередную байку. Истинные события будут отличаться от романтической версии Деда и, возможно, подаваться не в прямой хронологической последовательности, как это часто бывает в современном кино.

Качество: DVDRip
Формат: AVI
Видео кодек: DivX
Аудио кодек: AC3
Видео: MPEG-4 Divx, (672x368),1350 Кбит/с, 25.000 кадра/сек
Аудио#1: AC3, 2 ch,256 kbps (Rus) 48.0 KHz Оригинал
Общее
Полное имя : D:\Boez.(1-2.sezoni.26.seriy.iz.26).2004-2008.DivX.DVDRip\Boez.(1.sezon.12.seriy.iz.12).2004.DivX.DVDRip\Boez.(1.sezon.01.serija.iz.12).2004.DivX.DVDRip.avi
Формат : AVI
Формат/Информация : Audio Video Interleave
Размер файла : 550 Мбайт
Продолжительность : 47 м. 40 с.
Общий поток : 1613 Кбит/сек
Программа кодирования : FairUse Wizard - http://fairusewizard.com
Библиотека кодирования : The best and REALLY easy backup tool

Видео
Идентификатор : 0
Формат : MPEG-4 Visual
Настройки формата : BVOP1
Параметр BVOP формата : 1
Параметр QPel формата : Нет
Параметр GMC формата : Без точки перехода
Параметр матрицы формата : Default (H.263)
Режим смешивания : Сжатый битовый поток
Идентификатор кодека : DX50
Идентификатор кодека/Подсказка : DivX 5
Продолжительность : 47 м. 40 с.
Битрейт : 1284 Кбит/сек
Номинальный битрейт : 4854 Кбит/сек
Ширина : 672 пикселя
Высота : 368 пикселей
Соотношение сторон : 1,85:1
Частота кадров : 25,000 кадров/сек
Цветовое пространство : YUV
Субдискретизация насыщенности : 4:2:0
Битовая глубина : 8 бит
Тип развёртки : Прогрессивная
Метод сжатия : С потерями
Бит/(Пиксели*Кадры) : 0.208
Размер потока : 438 Мбайт (80%)
Библиотека кодирования : DivX 6.8.5 (UTC 2009-08-20)

Аудио
Идентификатор : 1
Формат : AC-3
Формат/Информация : Audio Coding 3
Коммерческое название : Dolby Digital
Идентификатор кодека : 2000
Продолжительность : 47 м. 40 с.
Вид битрейта : Постоянный
Битрейт : 256 Кбит/сек
Каналы : 2 канала
Channel layout : L R
Частота : 48,0 КГц
Частота кадров : 31,250 кадров/сек (1536 SPF)
Битовая глубина : 16 бит
Метод сжатия : С потерями
Размер потока : 87,3 Мбайт (16%)
Выравнивание : Разделение по промежуткам
ServiceKind/String : Complete Main
скриншот   скриншот   скриншот  



Скачать Боец через торрент https://pic1.kartinco.top/images/10/7mp62.jpg Скачать, смотреть онлайн Боец бесплантно в хорошем качестве Описание: Боец: Максим Паладин - морской пехотинец. Он был тяжело ранен, но сумел выкарабкаться с того света, чтобы остаться со своей ... 9.5 10 18
Торрент: Зарегистрирован [2019-12-01 17:13] · скачан: 9 раз
Статус: √ проверено
Размер: 13.88 GB
Как cкачать? Как скачать Боец через торрент | UTorrent




Последний раз редактировалось: Бумер (2019-12-01 17:13), всего редактировалось 3 раз(а)

28-11-2019 20:33  


Отключить вcю реклaмy на сайте, в т.ч. и в плеере онлайн просмотра!

    Дорогой пользователь! Огромная просьба, поблагодарите релизера, оцените раздачу и оставьте свои комментарий, если Вы скачали Боец через торрент бесплатно!!
    Комментировать посты могут только пользователи прошедшие не сложную регистрацию
    Показать сообщения:    


    Боец через торрент
    Скачать бесплатно Боец
    Боец скачать торрент
    Боец смотреть онлайн
    Cкачать фильм Боец бесплатно
    Боец скачать торрент в хорошем качестве
    Боец смотреть онлайн бесплатно в хорошем качестве
    Вы не можете начинать темы
    Вы не можете отвечать на сообщения
    Вы не можете редактировать свои сообщения
    Вы не можете удалять свои сообщения
    Вы не можете голосовать в опросах
    Вы не можете прикреплять файлы к сообщениям
    Вы можете скачивать файлы
    Боец / Сезоны: 1-2 / Серии: 1-26 из 26 [2004-2008 г., Боевик, драма, криминал, DVDRip] Оригинал смотреть онлайн, скачать торрент picoco.icu