Ссылка на приватное зеркало нашего сайта всего за 1$. Внимание количество ограничено!!!

2 сезон

iTunes

1 сезон

1

iTunes

iTunes

iTunes

1 сезон

RePack

30

ИГРА 18+

pack

ВАЖНО

!!Акция!!

Alien_RageХит недели

RePack

MK11
pack

Забери бонус

RePack

jed

!!Акция!!

Alien_Rage

RePack

fifa19

RePack

Assassins Creed: Odyssey

RePack

NEED FOR SPEED™ PAYBACK

4 сезон

9 сезон

Бесстыжие 9 сезон

Все сериалы

все сериалы на PB.wtf

RePack

FAR CRY 5
  

Барашек Шон: Фермерский бедлам / Shaun the Sheep: The Farmer's Llamas (Джей Грэйс) [2015, мультфильм, короткометражка, BDRip, Дубляж] iTunes pb.wtf

Барашек Шон: Фермерский бедлам через торрент pb.wtf

Размер: 518 MB | Добавлен: 4 года 5 мес. назад | Торрент скачан:113 раз
Скачать  

04-05-2016 16:31 Барашек Шон: Фермерский бедлам Скачать торрент  


Барашек Шон: Фермерский бедлам / Shaun the Sheep: The Farmer's Llamas


ИНФОРМАЦИЯ:
Год выпуска:2015
Страна: Великобритания
Жанр: мультфильм, короткометражка
Продолжительность: 00:29:29
Перевод: Дубляж - [Лицензия / iTunes]
Режиссер: Джей Грэйс

В Ролях:


Джастин Флетчер (Shaun, озвучка), Джон Шпаркс, Шон Коннолли, Chris Grimes, Кейт Харбор (дополнительные голоса, озвучка), Саймон Гринхолл (дополнительные голоса, озвучка), Энди Найман (дополнительные голоса, озвучка), Эмма Тейт (дополнительные голоса, озвучка), Ричард Веббер (дополнительные голоса, озвучка), Дэн Уильямсон (дополнительные голоса, озвучка)

Описание:
«Благодаря» барашку Шону фермер приобретает несколько лам на сельской ярмарке. Шон, конечно, рад такому приобретению - ведь бесшабашные ламы становятся его друзьями... Или нет?

  • Мировая премьера:13 ноября 2015

    ТЕХ.ДАННЫЕ:
    Качество: BDRip
    Формат: AVI
    Видео: xvid, 720x400 (16:9), 1998 kbps, 23,976 fps, 0,289 bpp
    Аудио: AC3 / 5.1 / 48 kHz / 448 kbps / 16 bit


    General
    Complete name : D:\Торент\Shaun the sheep_The farmer's llam (2015) BDRip.avi
    Format : AVI
    Format/Info : Audio Video Interleave
    File size : 518 MiB
    Duration : 29mn 29s
    Overall bit rate : 2 457 Kbps
    Writing application : XviD4PSP 6.0 / 54.29.105

    Video
    ID : 0
    Format : xvid
    Codec ID : xvid
    Duration : 29mn 29s
    Bit rate : 1 999 Kbps
    Width : 720 pixels
    Height : 400 pixels
    Display aspect ratio : 16:9
    Frame rate : 23.976 fps
    Bits/(Pixel*Frame) : 0.289
    Stream size : 422 MiB (81%)

    Audio
    ID : 1
    Format : AC-3
    Format/Info : Audio Coding 3
    Mode extension : CM (complete main)
    Codec ID : 2000
    Duration : 29mn 29s
    Bit rate mode : Constant
    Bit rate : 448 Kbps
    Channel(s) : 6 channels
    Channel positions : Front: L C R, Side: L R, LFE
    Sampling rate : 48.0 KHz
    Bit depth : 16 bits
    Compression mode : Lossy
    Stream size : 94.5 MiB (18%)
    Alignment : Aligned on interleaves
    Interleave, duration : 32 ms (0.77 video frame)
    Скриншоты:

    © Оформление by .::Ворон::.
    pb.wtf



  • Скачать Барашек Шон: Фермерский бедлам через торрент http://pic.kartinco.top/images/6/ordi9.jpg Скачать фильм Барашек Шон: Фермерский бедлам через торрент бесплантно в хорошем качестве Описание: «Благодаря» барашку Шону фермер приобретает несколько лам на сельской ярмарке. Шон, конечно, рад такому приобретению - ведь ... 10 10 4
    Торрент: Зарегистрирован [2016-05-04 16:31] · скачан: 113 раз
    Статус: √ проверено
    Размер: 518 MB
    Как cкачать? Как скачать Барашек Шон: Фермерский бедлам через торрент | qTorrent

    28-11-2019 20:33  

    Отключить всю рекламу на сайте

      Дорогой пользователь! Огромная просьба, поблагодарите релизера, оцените раздачу и оставьте свои комментарий, если Вы скачали Барашек Шон: Фермерский бедлам через торрент бесплатно! Внесите свою лепту в развитие PiratBit!
      Комментировать посты могут только пользователи прошедшие не сложную регистрацию
      Показать сообщения:    

      Барашек Шон: Фермерский бедлам через торрент
      Скачать бесплатно Барашек Шон: Фермерский бедлам
      Барашек Шон: Фермерский бедлам скачать торрент
      Барашек Шон: Фермерский бедлам смотреть онлайн
      Cкачать фильм Барашек Шон: Фермерский бедлам бесплатно
      Барашек Шон: Фермерский бедлам скачать торрент в хорошем качестве
      Барашек Шон: Фермерский бедлам смотреть онлайн бесплатно в хорошем качестве


      Вы не можете начинать темы
      Вы не можете отвечать на сообщения
      Вы не можете редактировать свои сообщения
      Вы не можете удалять свои сообщения
      Вы не можете голосовать в опросах
      Вы не можете прикреплять файлы к сообщениям
      Вы можете скачивать файлы