Ссылка на приватное зеркало нашего сайта всего за 1$. Внимание количество ограничено!!!

2 сезон

iTunes

1 сезон

1

2 сезон

2 сезон

iTunes

1 сезон

RePack

30

Ultimate

ВАЖНО

ИГРА 18+

pack

RePack

MK11
pack

Забери бонус

RePack

jed

!!Акция!!

Alien_Rage

RePack

fifa19

RePack

Assassins Creed: Odyssey

RePack

NEED FOR SPEED™ PAYBACK

4 сезон

9 сезон

Бесстыжие 9 сезон

Все сериалы

все сериалы на PB.wtf

RePack

FAR CRY 5
  

А зори здесь тихие... / Серии 01-04 из 04 (Ренат Давлетьяров) [2015, драма, военный, история, WEB-DL 1080p] pb.wtf

А зори здесь тихие... через торрент pb.wtf

Размер: 6.17 GB | Добавлен: 4 года 6 мес. назад | Торрент скачан:244 раза
Скачать  

09-05-2016 17:29 А зори здесь тихие... Скачать торрент  

Информация о фильме

Название: А зори здесь тихие...

Год выхода: 2015

Страна: Россия

Жанр: драма, военный, история

Студия: Интерфест, Реал-Дакота, Star Media

Перевод: не требуется

Продолжительность: 4 х ~ 00:45:00

Режиссер: Ренат Давлетьяров

В ролях: Пётр Фёдоров, Евгения Малахова, Агния Кузнецова, Анастасия Микульчина, Софья Лебедева (II), Кристина Асмус, Екатерина Вилкова, Анатолий Белый, Дарья Мороз, Виктор Проскурин, Максим Дрозд, Наталья Батрак, Илья Алексеев, Валерий Гришко, Евгения Ульянова, Сергей Видинеев, Юлия Силаева, Елена Медведева, Илья Ермолов, Василиса Кучеренко, Алеся Гузько, Юлия Полынская, Надежда Азоркина, Евгений Костин, Артур Еникеев

Описание:

Май 1942 года. В самый разгар Великой Отечественной войны вдалеке от линии фронта, у забытого богом разъезда, фашисты выбрасывают десант с целью пробраться на Кировскую железную дорогу и Беломорско-Балтийский канал. Это не обычные солдаты-пехотинцы, это опытные, тренированные диверсанты, элита войск СС, «сверхлюди». А против них — старшина Васков и пять девчонок-зенитчиц. Казалось бы, бой местного значения, но на кону — стратегически важная транспортная артерия, соединяющая значимые центры страны. Смогут ли старшина и его хрупкие новобранцы предотвратить нацистскую диверсию, и какой ценой?



Файл

Качество: WEB-DL 1080p

Формат: MKV

Видео: MPEG-4 AVC, 4 720 Кбит/с, 1920x1080, 25.000 fps

Звук: AC3, 2 ch, 192 Кбит/с, 48.0 KHz

Релиз от:
General
Unique ID : 181568978413933277097309122306836912145 (0x8898E9CABF28C99581E697FC882DD811)
Complete name : E:\A.zori.zdes.tihie.2015.WEB-DL.(1080p).ExKinoRay\A.zori.zdes.tihie.(01.seriya).2015.WEB-DL.(1080p).ExKinoRay.mkv
Format : Matroska
Format version : Version 2
File size : 1.56 GiB
Duration : 44mn 31s
Overall bit rate : 5 012 Kbps
Encoded date : UTC 2016-05-09 14:24:29
Writing application : mkvmerge v5.8.0 ('No Sleep / Pillow') built on Sep 2 2012 15:37:04
Writing library : libebml v1.2.3 + libmatroska v1.3.0

Video
ID : 1
Format : AVC
Format/Info : Advanced Video Codec
Format profile : High@L4.1
Format settings, CABAC : Yes
Format settings, ReFrames : 4 frames
Codec ID : V_MPEG4/ISO/AVC
Duration : 44mn 31s
Bit rate : 4 720 Kbps
Width : 1 920 pixels
Height : 1 080 pixels
Display aspect ratio : 16:9
Frame rate mode : Constant
Frame rate : 25.000 fps
Color space : YUV
Chroma subsampling : 4:2:0
Bit depth : 8 bits
Scan type : Progressive
Bits/(Pixel*Frame) : 0.091
Stream size : 1.47 GiB (94%)
Language : Russian
Default : Yes
Forced : Yes

Audio
ID : 2
Format : AC-3
Format/Info : Audio Coding 3
Mode extension : CM (complete main)
Format settings, Endianness : Big
Codec ID : A_AC3
Duration : 44mn 31s
Bit rate mode : Constant
Bit rate : 192 Kbps
Channel(s) : 2 channels
Channel positions : Front: L R
Sampling rate : 48.0 KHz
Frame rate : 31.250 fps (1536 spf)
Compression mode : Lossy
Stream size : 61.2 MiB (4%)
Language : Russian
Default : Yes
Forced : Yes[/code]
pb.wtf



Скачать А зори здесь тихие... через торрент http://i079.radikal.ru/1605/84/7c730eb2225d.jpg Скачать фильм А зори здесь тихие... через торрент бесплантно в хорошем качестве Описание: Май 1942 года. В самый разгар Великой Отечественной войны вдалеке от линии фронта, у забытого богом разъезда, фашисты выбрасывают ... 7.9 10 18
Торрент: Зарегистрирован [2016-05-09 17:29] · скачан: 244 раз
Статус: √ проверено
Размер: 6.17 GB
Как cкачать? Как скачать А зори здесь тихие... через торрент | qTorrent

% Раздел Тема Автор DL S | L
R.G.Resident - Сериалы, Видео [ 2.88 GB ] А зори здесь тихие... / Серии 01-04 из 04 [2015 военный история WEB-DLRip-AVC от R.G. Resident] -Lexx- Скачать
1 | 0

28-11-2019 20:33  

Отключить всю рекламу на сайте

09-05-2016 17:56 А зори здесь тихие... Скачать торрент  

Не верьте рейтингу...pb.wtf



09-05-2016 19:57 А зори здесь тихие... Скачать торрент  

хороший фильмpb.wtf



    Дорогой пользователь! Огромная просьба, поблагодарите релизера, оцените раздачу и оставьте свои комментарий, если Вы скачали А зори здесь тихие... через торрент бесплатно! Внесите свою лепту в развитие PiratBit!
    Комментировать посты могут только пользователи прошедшие не сложную регистрацию
    Показать сообщения:    

    А зори здесь тихие... через торрент
    Скачать бесплатно А зори здесь тихие...
    А зори здесь тихие... скачать торрент
    А зори здесь тихие... смотреть онлайн
    Cкачать фильм А зори здесь тихие... бесплатно
    А зори здесь тихие... скачать торрент в хорошем качестве
    А зори здесь тихие... смотреть онлайн бесплатно в хорошем качестве


    Вы не можете начинать темы
    Вы не можете отвечать на сообщения
    Вы не можете редактировать свои сообщения
    Вы не можете удалять свои сообщения
    Вы не можете голосовать в опросах
    Вы не можете прикреплять файлы к сообщениям
    Вы можете скачивать файлы