Ссылка на приватное зеркало нашего сайта всего за 1$. Внимание количество ограничено!!!

2 сезон

iTunes

1 сезон

1

2 сезон

2 сезон

iTunes

1 сезон

RePack

30

Новинка

ВАЖНО

ИГРА 18+

pack

RePack

MK11
pack

Забери бонус

RePack

jed

!!Акция!!

Alien_Rage

RePack

fifa19

RePack

Assassins Creed: Odyssey

RePack

NEED FOR SPEED™ PAYBACK

4 сезон

9 сезон

Бесстыжие 9 сезон

Все сериалы

все сериалы на PB.wtf

RePack

FAR CRY 5
  

Запретная Зона 3D / Bunker of the Dead (Маттиас Олоф Ейх) [2015, ужасы, боевик, комедия, BDRip 720p] Dub [Чистый звук] (Без рекламы) pb.wtf

Запретная Зона 3D через торрент pb.wtf

Размер: 4.17 GB | Добавлен: 4 года 6 мес. назад | Торрент скачан:137 раз
Скачать  

22-05-2016 14:39 Запретная Зона 3D Скачать торрент  

Запретная Зона 3D / Bunker of the Dead«А зомби здесь тихие»

Год выпуска » 2015
Страна » Германия
Жанр » Ужасы, боевик, комедия
Продолжительность » 01:13:54
Перевод » Дублированный • Чистый звук
Субтитры » Нет

В ролях
» Сарита Брэдли, Патрик Янс, Кристиан Джангуирт, Peter Koller, Tobias Lampe, Хуан Карлос Лопез, Эстер Мааб, Christoper Lee Meadows, Андреас Пейп, Aciel Martinez Pol

Режиссёр
» Маттиас Олоф Ейх

» Двое друзей Пол и Маркус находят в одном из старых дневников описание расположения секретного подземного бункера времен Второй Мировой войны. Вооружившись специальным 3D девайсом, передающим изображение «от первого лица» один из них отправляется на место, а второй помогает на расстоянии, отслеживая его перемещения и давая правильные советы.

Вход в бункер находится на территории американской военной базы. С опасными приключения Пол проникает в подземелье. Правда он еще не знает, что его визит не остался незамеченным. И речь идет не только о военных, теперь за ним следит нечто мрачное и зловещее, находившееся в заточении более 70 лет…

• Качество » BDRip 720p
• Формат » MKV
• Видео кодек » AVC
• Аудио кодек » AC3/DTS
• Видео » 1280x496 (2.581:1), 23.976 fps, AVC, 5 751 Kbps
• Аудио » Русский (AC-3 / 2 ch / 384 kbps /16 bit / 48,0 КГц )
• Аудио » Английский (DTS / 6 ch / 1510 kbps / 48,0 КГц / 24 bit)



Премьера (РФ):8 февраля 2016, «Кинологистика» 3D

Бюджет:€525 000

Сборы в России:$8 828

Общее
Уникальный идентификатор : 233418932635168633656645967398812858538 (0xAF9AD9E7E8A8B1549F9AF247C89938AA)
Полное имя : E:\3apPetHaYa.30Ha.2O15.D.BDRip.72Op.mkv
Формат : Matroska
Версия формата : Version 2
Размер файла : 4,17 Гбайт
Продолжительность : 1 ч. 16 м.
Общий поток : 7800 Кбит/сек
Дата кодирования : UTC 2016-05-21 20:31:15
Программа кодирования : mkvmerge v8.3.0 ('Over the Horizon') 64bit
Библиотека кодирования : libebml v1.3.1 + libmatroska v1.4.2
DURATION : 01:16:29.963000000
NUMBER_OF_FRAMES : 430309
NUMBER_OF_BYTES : 865781708
_STATISTICS_WRITING_APP : mkvmerge v8.3.0 ('Over the Horizon') 64bit
_STATISTICS_WRITING_DATE_UTC : 2016-05-21 20:31:15
_STATISTICS_TAGS : BPS DURATION NUMBER_OF_FRAMES NUMBER_OF_BYTES

Видео
Идентификатор : 1
Формат : AVC
Формат/Информация : Advanced Video Codec
Профиль формата : High@L4.1
Параметр CABAC формата : Да
Параметр ReFrames формата : 4 кадра
Идентификатор кодека : V_MPEG4/ISO/AVC
Продолжительность : 1 ч. 16 м.
Битрейт : 5752 Кбит/сек
Ширина : 1280 пикселей
Высота : 496 пикселей
Соотношение сторон : 2,581
Режим частоты кадров : Постоянный
Частота кадров : 23,976 кадра/сек
Цветовое пространство : YUV
Субдискретизация насыщенности : 4:2:0
Битовая глубина : 8 бит
Тип развёртки : Прогрессивная
Бит/(Пиксели*Кадры) : 0.378
Размер потока : 3,08 Гбайт (74%)
Default : Да
Forced : Нет

Аудио #1
Идентификатор : 2
Формат : AC-3
Формат/Информация : Audio Coding 3
Расширение режима : CM (complete main)
Параметр Endianness формата : Big
Идентификатор кодека : A_AC3
Продолжительность : 1 ч. 16 м.
Вид битрейта : Постоянный
Битрейт : 384 Кбит/сек
Каналы : 2 канала
Расположение каналов : Front: L R
Частота : 48,0 КГц
Битовая глубина : 16 бит
Метод сжатия : С потерями
Размер потока : 210 Мбайт (5%)
Язык : Russian
Default : Да
Forced : Да

Аудио #2
Идентификатор : 3
Формат : DTS
Формат/Информация : Digital Theater Systems
Режим : 16
Параметр Endianness формата : Big
Идентификатор кодека : A_DTS
Продолжительность : 1 ч. 16 м.
Вид битрейта : Постоянный
Битрейт : 1509 Кбит/сек
Каналы : 6 каналов
Расположение каналов : Front: L C R, Side: L R, LFE
Частота : 48,0 КГц
Битовая глубина : 24 бит
Метод сжатия : С потерями
Размер потока : 827 Мбайт (19%)
Язык : English
Default : Нет
Forced : Нет

Меню
00:00:00.000 : en:
00:06:32.141 : en:
00:11:55.714 : en:
00:15:45.319 : en:
00:28:12.774 : en:
00:32:47.840 : en:
00:39:22.943 : en:
00:47:14.206 : en:
00:53:58.735 : en:
00:59:28.273 : en:
01:05:24.587 : en:
01:09:44.054 : en:
01:16:34.590 : en:
[/code]
скриншот   скриншот   скриншот   скриншот   скриншот   скриншот  
pb.wtf



Скачать Запретная Зона 3D через торрент http://pic1.kartinco.top/images/10/qjilv.jpg Скачать фильм Запретная Зона 3D через торрент бесплантно в хорошем качестве В ролях » Сарита Брэдли, Патрик Янс, Кристиан Джангуирт, Peter Koller, Tobias Lampe, Хуан Карлос Лопез, Эстер Мааб, Christoper Lee Meadows, ... 8.3 10 11
Торрент: Зарегистрирован [2016-05-22 14:40] · скачан: 137 раз
Статус: T временная
Размер: 4.17 GB
Как cкачать? Как скачать Запретная Зона 3D через торрент | qTorrent

% Раздел Тема Автор DL S | L
3D Фильмы [ 9.87 GB ] Запретная Зона 3D в 3Д / Bunker of the Dead 3D [2015 BDRip 1080p] OverUnder / Вертикальная стереопара serega768 Скачать
1 | 0
T 3D Фильмы [ 6.89 GB ] Запретная Зона 3D / Bunker of the Dead [2015 BDRip 1080p] [Half OverUnder / Вертикальная анаморфная стереопара] DUB [Line] bober100 Скачать
1 | 0
T Фильмы 2015 [DVDrip, WEB-DLRip, HDrip] [ 1.37 GB ] Запретная Зона 3D / Bunker of the Dead [2015 HDRip ] DUB [Чистый звук] $-DRON-$ Скачать
1 | 0

28-11-2019 20:33  

Отключить всю рекламу на сайте

22-05-2016 15:05 Запретная Зона 3D Скачать торрент  

Смотреть не стану из принципа,ибо хватит потакать привычке неких наших дядей,что считают себя самыми умными,переназывать фильмы по своему тупому усмотрению.В отличии от них режиссеры,не от балды названия фильмам дают.pb.wtf



22-05-2016 15:07 Запретная Зона 3D Скачать торрент  

А на первом скриншоте мужик с пистолетом и в маске сильно на Порошенко смахивает... pb.wtf



22-05-2016 15:17 Запретная Зона 3D Скачать торрент  

Денди, ты не один кто так думает на других форумах тожеpb.wtf



22-05-2016 15:20 Запретная Зона 3D Скачать торрент  

Вот это трэшак pb.wtf



22-05-2016 15:40 Запретная Зона 3D Скачать торрент  

Посмотрел фильм, ну конечно и г....!!!pb.wtf



22-05-2016 15:47 Запретная Зона 3D Скачать торрент  

Денди писал(а):

А на первом скриншоте мужик с пистолетом и в маске сильно на Порошенко смахивает...

да и на Януковича смахивает если присмотрецаpb.wtf



22-05-2016 16:57 Запретная Зона 3D Скачать торрент  

s100as писал(а):

Денди писал(а):

А на первом скриншоте мужик с пистолетом и в маске сильно на Порошенко смахивает...

да и на Януковича смахивает если присмотреца

Да, больше на негоpb.wtf



22-05-2016 17:45 Запретная Зона 3D Скачать торрент  

anys продакшин pb.wtf



22-05-2016 19:58 Запретная Зона 3D Скачать торрент  

Денди писал(а):

А на первом скриншоте мужик с пистолетом и в маске сильно на Порошенко смахивает...

эТ ОН И ЕСТЬ :-) В СТРАНЕ КРИЗИС ШОКОЛАДКУ МАЛО КТО ПОКУПАЕТ :-)pb.wtf



23-05-2016 01:12 Запретная Зона 3D Скачать торрент  

half-life (3 скриншот) с куклами )))pb.wtf



23-05-2016 13:46 Запретная Зона 3D Скачать торрент  

На первом скрине Порошенко?pb.wtf



    Дорогой пользователь! Огромная просьба, поблагодарите релизера, оцените раздачу и оставьте свои комментарий, если Вы скачали Запретная Зона 3D через торрент бесплатно! Внесите свою лепту в развитие PiratBit!
    Комментировать посты могут только пользователи прошедшие не сложную регистрацию
    Показать сообщения:    

    Запретная Зона 3D через торрент
    Скачать бесплатно Запретная Зона 3D
    Запретная Зона 3D скачать торрент
    Запретная Зона 3D смотреть онлайн
    Cкачать фильм Запретная Зона 3D бесплатно
    Запретная Зона 3D скачать торрент в хорошем качестве
    Запретная Зона 3D смотреть онлайн бесплатно в хорошем качестве


    Вы не можете начинать темы
    Вы не можете отвечать на сообщения
    Вы не можете редактировать свои сообщения
    Вы не можете удалять свои сообщения
    Вы не можете голосовать в опросах
    Вы не можете прикреплять файлы к сообщениям
    Вы можете скачивать файлы