Всегда рабочее зеркало без VPN и Proxy просто перед .vidak.icu напиши любое слово или цифру, Пример http://lwjm.vidak.icu

MVO

2 сезон

2 сезон

1

1 сезон

iTunes

2 сезон

13

1 сезон

Deluxe

pack

Рекомендуем

Пиратка

30

ВАЖНО

RePack

MK11

RePack

jed

RePack

fifa19

RePack

RDR2

RePack

NEED FOR SPEED™ PAYBACK

Кинопоиск HD

6 сезон

 Острые козырьки 6 сезон

Все сериалы

все сериалы на PB.wtf

RePack

FAR CRY 5

Anonymous, нам критически не хватает 5601 руб. на оплату серверов и переферии за Апрель, помоги нам пожалуйста, вся надежда только на тебя. В благодарность мы отключим тебе всю рекламу на сайте!

×
  
Magnet ссылка

Компромат / Executive Power (Дэвид Л. Корли) [1997 г., триллер, DVDRip ] AVO pb.wtf

Компромат через торрент pb.wtf

Размер: 1.46 GB | Добавлен: 5 лет 10 мес. назад | Торрент скачан:0 раз
Смотреть онлайн Компромат | Скачать    Ребята, помогите собрать деньги на оплату серверов!!!

19-07-2016 07:39 Компромат Скачать торрент  

Компромат / Executive Power Год выпуска: 1997
Страна: США
Жанр: триллер
Продолжительность: 01:33:16
Перевод: Авторский (одноголосый)Сергей Кузнецов
Субтитры: Отсутствуют

Режиссер: Дэвид Л. Корли
Продюссер: Скотт Деррик, Nathan Folks
Сценарий: Дэвид Л. Корли

Бюджет: $2 000 000
Премьера в мире: 25 сентября 1997

лицам до 17 лет обязательно присутствие взрослого
http://www.imdb.com/title/tt0119087/



В ролях: Крэйг Шеффер, Андреа Рот, Джон Хёрд, Джоанна Кэссиди, Уильям Этертон, Денис Кросби, Джон Каподиче, Ванда Де Джисус, Майкл Хортон, Даг Штейндорфф

Описание: Бывший агент секретной службы Ник Сейгер вновь призван на задание для расследования убийства близкого друга и помощника президента. Расследование выводит Ника на Сьюзан, подругу убитого, которая знает местонахождение видеокассеты, способной изменить результаты президентских выборов.
Дело зашло уже слишком далеко. Жестоко убит босс Ника, похищена Сьюзан, сам Ник тяжело ранен. Необходимо найти человека, который стоит за этим заговором.

Качество: DVDRip
Формат: AVI
Видео кодек: XviD
Аудио кодек: AC3
Видео: 704x528 (1.33:1), 25 fps, XviD build 50, 2043 kbps avg, 0.22 bit/pixel
Аудио#1: Russian: 48 kHz, AC3 Dolby Digital, 2/0 (L,R) ch, 192.00 kbps avg
скриншот  скриншот  скриншот  скриншот  скриншот  скриншот  

General
Complete name : C:\Users\ghdf\Desktop\Executive Power.avi
Format : AVI
Format/Info : Audio Video Interleave
File size : 1.46 GiB
Duration : 1h 33mn
Overall bit rate : 2 246 Kbps
Writing application : VirtualDubMod 1.5.10.3 | www.virtualdub-fr.org || (build 2550/release)
Writing library : VirtualDubMod build 2550/release

Video
ID : 0
Format : MPEG-4 Visual
Format profile : Advanced Simple@L5
Format settings, BVOP : 1
Format settings, QPel : No
Format settings, GMC : No warppoints
Format settings, Matrix : Custom
Codec ID : XVID
Codec ID/Hint : XviD
Duration : 1h 33mn
Bit rate : 2 044 Kbps
Width : 704 pixels
Height : 528 pixels
Display aspect ratio : 4:3
Frame rate : 25.000 fps
Color space : YUV
Chroma subsampling : 4:2:0
Bit depth : 8 bits
Scan type : Progressive
Compression mode : Lossy
Bits/(Pixel*Frame) : 0.220
Stream size : 1.33 GiB (91%)
Writing library : XviD 1.2.1 (UTC 2008-12-04)

Audio
ID : 1
Format : AC-3
Format/Info : Audio Coding 3
Mode extension : CM (complete main)
Format settings, Endianness : Big
Codec ID : 2000
Duration : 1h 33mn
Bit rate mode : Constant
Bit rate : 192 Kbps
Channel count : 2 channels
Channel positions : Front: L R
Sampling rate : 48.0 KHz
Bit depth : 16 bits
Compression mode : Lossy
Stream size : 128 MiB (9%)
Alignment : Split accross interleaves
Interleave, duration : 40 ms (1.00 video frame)
Interleave, preload duration : 500 ms

pb.wtf



Скачать Компромат через торрент http://fenixclub.com/uploads/98159/img-349272-1e3c58e11f.jpg Скачать, смотреть онлайн Компромат бесплантно в хорошем качестве Описание: Бывший агент секретной службы Ник Сейгер вновь призван на задание для расследования убийства близкого друга и помощника ... 5 10 1
Торрент: Зарегистрирован [2016-07-19 07:39] · скачан: 0 раз
Статус: √ проверено
Размер: 1.46 GB
Как cкачать? Как скачать Компромат через торрент | UTorrent

28-11-2019 20:33  

Отключить всю рекламу на сайте

    Дорогой пользователь! Огромная просьба, поблагодарите релизера, оцените раздачу и оставьте свои комментарий, если Вы скачали Компромат через торрент бесплатно!
    Комментировать посты могут только пользователи прошедшие не сложную регистрацию
    Показать сообщения:    

    Компромат через торрент
    Скачать бесплатно Компромат
    Компромат скачать торрент
    Компромат смотреть онлайн
    Cкачать фильм Компромат бесплатно
    Компромат скачать торрент в хорошем качестве
    Компромат смотреть онлайн бесплатно в хорошем качестве


    Вы не можете начинать темы
    Вы не можете отвечать на сообщения
    Вы не можете редактировать свои сообщения
    Вы не можете удалять свои сообщения
    Вы не можете голосовать в опросах
    Вы не можете прикреплять файлы к сообщениям
    Вы можете скачивать файлы