Всегда рабочее зеркало без VPN и Proxy просто перед .vidak.icu напиши любое слово или цифру, Пример http://coth.vidak.icu

MVO

Лицензия

1 сезон

1

1 сезон

iTunes

1 сезон

13

1 сезон

Deluxe

pack

Рекомендуем

Repack

30

ВАЖНО

RePack

MK11

RePack

jed

RePack

fifa19

RePack

RDR2

RePack

NEED FOR SPEED™ PAYBACK

Кинопоиск HD

6 сезон

 Острые козырьки 6 сезон

Все сериалы

все сериалы на PB.wtf

RePack

FAR CRY 5
  
Magnet ссылка

Вудлон / Woodlawn (Эндрю Эрвин / Andrew Erwin) [2015, США, Драма, спорт, HDRip] MVO (iTunes) pb.wtf

Вудлон через торрент pb.wtf

Размер: 1.46 GB | Добавлен: 5 лет 11 мес. назад | Торрент скачан:13 раз
Смотреть онлайн Вудлон | Скачать    Ребята, помогите собрать деньги на оплату серверов!!!

20-07-2016 15:10 Вудлон Скачать торрент  

Вудлон / Woodlawn«One Hope. One Truth. One Way»
Год выпуска: 2015
Страна: США
Жанр: Драма, спорт
Продолжительность: 02:03:57
Перевод: Профессиональный (многоголосый закадровый) iTunes
Субтитры: нет
Рейтинг MPAA: PG (рекомендуется присутствие родителей)

Режиссер: Эндрю Эрвин / Andrew Erwin,

В ролях: Шон Эстин, Ник Бишоп, Калеб Кастилло, Шерри Шеперд, Джон Войт, Джой Брансон, Лэнс Э. Николс, Си Томас Хауэлл, Кевин Сайзмор, Девон Франклин...

Описание: Фильм основан на реальных событиях, произошедших в 1973 году в Алабаме. Это было непростое время, когда расовый вопрос стоял очень остро. Чернокожий парень решает играть в американский футбол. Но в команде среди белых парней он чувствует себя изгоем. Но чтобы добиться поставленной цели и идти к своей мечте, он и его команда находят спасение в вере...
Сэмпл
Качество: НDRip
Формат видео: AVI
Видео: 720x304 (2.35:1), 23.976 fps, XviD, 1485 kbps, 0.28 bit/pixel
Аудио: 48 kHz, AC-3, 2 ch, 192 kbps, Rus, MVO
Субтитры: Отсутствуют
Формат : AVI
Формат/Информация : Audio Video Interleave
Размер файла : 1,46 Гбайт
Продолжительность : 2 ч. 3 м.
Общий поток : 1686 Кбит/сек
Жанр : Drama/Sport / Drama/Sport
Программа кодирования : VirtualDubMod 1.5.10.3 (build 2550/release)
Формат оригинала/Имя : Movie / Movie

Видео
Идентификатор : 0
Формат : MPEG-4 Visual
Профиль формата : Advanced [email protected]
Параметр BVOP формата : 2
Параметр QPel формата : Нет
Параметр GMC формата : Без точки перехода
Параметр матрицы формата : Выборочная
Идентификатор кодека : XVID
Идентификатор кодека/Подсказка : XviD
Продолжительность : 2 ч. 3 м.
Битрейт : 1485 Кбит/сек
Ширина : 720 пикселей
Высота : 304 пикселя
Соотношение сторон : 2,35:1
Частота кадров : 23,976 кадра/сек
Цветовое пространство : YUV
Субдискретизация насыщенности : 4:2:0
Битовая глубина : 8 бит
Тип развёртки : Прогрессивная
Метод сжатия : С потерями
Бит/(Пиксели*Кадры) : 0.283
Размер потока : 1,29 Гбайт (88%)
Библиотека кодирования : XviD 73

Аудио
Идентификатор : 1
Формат : AC-3
Формат/Информация : Audio Coding 3
Расширение режима : CM (complete main)
Параметр Endianness формата : Big
Идентификатор кодека : 2000
Продолжительность : 2 ч. 3 м.
Вид битрейта : Постоянный
Битрейт : 192 Кбит/сек
Каналы : 2 канала
Расположение каналов : Front: L R
Частота : 48,0 КГц
Метод сжатия : С потерями
Размер потока : 170 Мбайт (11%)
Выравнивание : Соединение по промежуткам
Продолжительность промежутка : 42 мс. (1,00 видеокадр)
Время предзагрузки промежутка : 512 мс.
pb.wtf



Скачать Вудлон через торрент http://i80.fastpic.ru/big/2016/0609/58/898ea1c90f0dd25078595c139b8fcc58.jpg Скачать, смотреть онлайн Вудлон бесплантно в хорошем качестве Описание: Фильм основан на реальных событиях, произошедших в 1973 году в Алабаме. Это было непростое время, когда расовый вопрос стоял ... 5 10 1
Торрент: Зарегистрирован [2016-07-20 15:10] · скачан: 13 раз
Статус: √ проверено
Размер: 1.46 GB
Как cкачать? Как скачать Вудлон через торрент | UTorrent

% Раздел Тема Автор DL S | L
Фильмы 2015 [DVDrip, WEB-DLRip, HDrip] [ 2.8 GB ] Вудлон / Woodlawn [2015 BDRip-AVC] MVO potroks Скачать
1 | 0
Фильмы 2015 [DVDrip, WEB-DLRip, HDrip] [ 1.46 GB ] Вудлон / Woodlawn [2015 BDRip-AVC] MVO potroks Скачать
1 | 0
Фильмы 2015 [DVDrip, WEB-DLRip, HDrip] [ 2.18 GB ] Вудлон / Woodlawn [2015 HDRip многоголосый закадровый ""] coc900 Скачать
1 | 0
Фильмы 2015 [DVDrip, WEB-DLRip, HDrip] [ 1.46 GB ] Вудлон / Woodlawn [2015 BDRip] Twi7ter Скачать
1 | 0
Фильмы 2015 [DVDrip, WEB-DLRip, HDrip] [ 2.05 GB ] Вудлон / Woodlawn [2015 HDRip] многоголосый Ворон Скачать
1 | 0

28-11-2019 20:33  

Отключить всю рекламу на сайте

    Дорогой пользователь! Огромная просьба, поблагодарите релизера, оцените раздачу и оставьте свои комментарий, если Вы скачали Вудлон через торрент бесплатно!
    Комментировать посты могут только пользователи прошедшие не сложную регистрацию
    Показать сообщения:    

    Вудлон через торрент
    Скачать бесплатно Вудлон
    Вудлон скачать торрент
    Вудлон смотреть онлайн
    Cкачать фильм Вудлон бесплатно
    Вудлон скачать торрент в хорошем качестве
    Вудлон смотреть онлайн бесплатно в хорошем качестве


    Вы не можете начинать темы
    Вы не можете отвечать на сообщения
    Вы не можете редактировать свои сообщения
    Вы не можете удалять свои сообщения
    Вы не можете голосовать в опросах
    Вы не можете прикреплять файлы к сообщениям
    Вы можете скачивать файлы