новый адрес
Ссылка на приватное зеркало всего за 1$. Внимание количество ограничено!!!

iTunes

1+1

iTunes

мы

iTunes

1

iTunes

Чернобыль

iTunes

Ральф против интернета

Лицензия

ПШазам

Лицензия

Оно 2

Лицензия

30
pack

Вам бонус

ВАЖНО

!!Акция!!

Alien_RageХит недели

RePack

Resident Evil 21

ИГРА 18+

pack

RePack

jed

!!Акция!!

Alien_Rage

RePack

fifa19

RePack

Assassins Creed: Odyssey

RePack

NEED FOR SPEED™ PAYBACK

3 сезон

9 сезон

Бесстыжие 9 сезон

Все сериалы

все сериалы на PB.wtf

RePack

FAR CRY 5
Ребята, катастрофически не хватает 1900р. для оплаты серверов за Октябрь (всвязи с блокировками трафик упал в 3 раза), 1-2р., выручайте.
  

Призраки покидают вершины (Эразм Карамян, Степан Кеворков) [1955, СССР, приключения, VHSRip от AVP Studio] pb.wtf

Призраки покидают вершины через торрент pb.wtf

Размер: 745 MB | Добавлен: 3 года 4 мес. назад | Торрент скачан:16 раз
Скачать  

22-07-2016 08:42 Призраки покидают вершины Скачать торрент  

Призраки покидают вершины
Страна: СССР
Производство: Ереванская киностудия

Жанр: приключения
Год выпуска: 1955
Продолжительность: 01:31:51

Перевод: Не требуется
Cубтитры: нет
Оригинальная аудиодорожка: русский

Режиссер: Эразм Карамян, Степан Кеворков

В ролях:
Сос Сосян, Виолетта Ютуджян, Артём Карапетян, Грачья Нерсесян, Ваграм Папазян, Давид Малян, Леонид Кмит, Всеволод Тягушев, Андрей Файт, Г. Яковлев, Ольга Гулазян...
Полный список актёров

Описание:
Для восхождения на гору Камир-Сар, на неприступной вершине которой по заключению молодого ученого Арташеса Маляна находится редкое месторождение ртути и серебра, несмотря на противодействие маститого профессора Даниэль-бека, организуется экспедиция во главе с Маляном. Информация о смелом походе советских ученых доходит до Альвареца да Кортеца, хозяина одного из крупнейших европейских химических концернов. В молодости он побывал на этой вершине и, чтобы скрыть обнаруженные металлы, сбросил русского ученого Шелагина в пропасть, заставив молчать Даниэль-бека. Иностранная разведка получает задание сорвать экспедицию…

Источник: VHS
Качество видео: VHSRip
Формат видео: AVI

Видео: 640x480 (4:3), 25 fps, XviD ~ 997 kbps avg, 0.130 bit/pixel
Аудио: 48 kHz, MP3 2.0, 128 kbps

Раздача от:
Общее
Полное имя : Prizraki.pokidayt.vercshiny.1955.VHSRip-745_[New-team]_by_AVP_Studio.avi
Формат : AVI
Формат/Информация : Audio Video Interleave
Размер файла : 745 Мбайт
Продолжительность : 1 ч. 31 м.
Общий поток : 1134 Кбит/сек
Программа кодирования : VirtualDubMod 1.5.10.3 | www.virtualdub-fr.org || (build 2550/release)
Библиотека кодирования : VirtualDubMod build 2550/release

Видео
Идентификатор : 0
Формат : MPEG-4 Visual
Профиль формата : Advanced Simple@L5
Параметр BVOP формата : 1
Параметр QPel формата : Нет
Параметр GMC формата : Без точки перехода
Параметр матрицы формата : Выборочная
Идентификатор кодека : XVID
Идентификатор кодека/Подсказка : XviD
Продолжительность : 1 ч. 31 м.
Битрейт : 997 Кбит/сек
Ширина : 640 пикселей
Высота : 480 пикселей
Соотношение сторон : 4:3
Частота кадров : 25,000 кадров/сек
Цветовое пространство : YUV
Субдискретизация насыщенности : 4:2:0
Битовая глубина : 8 бит
Тип развёртки : Прогрессивная
Метод сжатия : С потерями
Бит/(Пиксели*Кадры) : 0.130
Размер потока : 655 Мбайт (88%)
Библиотека кодирования : XviD 1.2.1 (UTC 2008-12-04)

Аудио
Идентификатор : 1
Формат : MPEG Audio
Версия формата : Version 1
Профиль формата : Layer 3
Идентификатор кодека : 55
Идентификатор кодека/Подсказка : MP3
Продолжительность : 1 ч. 31 м.
Вид битрейта : Постоянный
Битрейт : 128 Кбит/сек
Каналы : 2 канала
Частота : 48,0 КГц
Метод сжатия : С потерями
Размер потока : 84,1 Мбайт (11%)
Выравнивание : Соединение по промежуткам
Продолжительность промежутка : 40 мс. (1,00 видеокадр)
Время предзагрузки промежутка : 504 мс.
Библиотека кодирования : LAME3.99r
Настройки программы : -m s -V 4 -q 2 -lowpass 17 -b 128
pb.wtf



Скачать Призраки покидают вершины через торрент http://i042.radikal.ru/1607/19/ecf3cbc410e5.png Скачать фильм Призраки покидают вершины через торрент бесплантно в хорошем качестве Описание:Для восхождения на гору Камир-Сар, на неприступной вершине которой по заключению молодого ученого Арташеса Маляна находится редкое ... 10 10 1
Info! Золотая раздача, скачанное не засчитывается.
Торрент: Зарегистрирован [2016-07-22 08:42] · скачан: 16 раз
Статус: √ проверено
Размер: 745 MB
Как cкачать? Как скачать Призраки покидают вершины через торрент | qTorrent

% Раздел Тема Автор DL S | L
Кино СССР [ 1.09 GB ] Призраки покидают вершины [1955 СССР VHSRip-AVC от AVP Studio] AVP Studio Скачать
1 | 0
Кино СССР [ 1.09 GB ] Призраки покидают вершины [1955 СССР VHSRip от AVP Studio] AVP Studio Скачать
1 | 0
Отключить всю рекламу на сайте
    Дорогой пользователь! Огромная просьба, поблагодарите релизера, оцените раздачу и оставьте свои комментарий, если Вы скачали Призраки покидают вершины через торрент бесплатно! Внесите свою лепту в развитие PiratBit!
    Комментировать посты могут только пользователи прошедшие не сложную регистрацию
    Показать сообщения:    

    Призраки покидают вершины через торрент
    Скачать бесплатно Призраки покидают вершины
    Призраки покидают вершины скачать торрент
    Призраки покидают вершины смотреть онлайн
    Cкачать фильм Призраки покидают вершины бесплатно
    Призраки покидают вершины скачать торрент в хорошем качестве
    Призраки покидают вершины смотреть онлайн бесплатно в хорошем качестве


    Вы не можете начинать темы
    Вы не можете отвечать на сообщения
    Вы не можете редактировать свои сообщения
    Вы не можете удалять свои сообщения
    Вы не можете голосовать в опросах
    Вы не можете прикреплять файлы к сообщениям
    Вы можете скачивать файлы