Ссылка на приватное зеркало нашего сайта всего за 1$. Внимание количество ограничено!!!

2 сезон

iTunes

1 сезон

1

2 сезон

2 сезон

iTunes

1 сезон

RePack

30

Ultimate

ВАЖНО

ИГРА 18+

pack

RePack

MK11
pack

Забери бонус

RePack

jed

!!Акция!!

Alien_Rage

RePack

fifa19

RePack

Assassins Creed: Odyssey

RePack

NEED FOR SPEED™ PAYBACK

4 сезон

9 сезон

Бесстыжие 9 сезон

Все сериалы

все сериалы на PB.wtf

RePack

FAR CRY 5
  

Бэтмен против Супермена: На заре справедливости / Batman v Superman: Dawn of Justice (Зак Снайдер / Zack Snyder) (Расширенная версия) [2016, фантастика, боевик, приключения, BDRip 1080p от _denis_100 / NNNB] DUB + MVO + AVO pb.wtf

Бэтмен против Супермена: На заре справедливости через торрент pb.wtf

Размер: 24.56 GB | Добавлен: 4 года 4 мес. назад | Торрент скачан:581 раз
Скачать  

02-08-2016 12:06 Бэтмен против Супермена: На заре справедливости Скачать торрент  

Бэтмен против Супермена: На заре справедливости / Batman v Superman: Dawn of Justice
Расширенная версия / Ultimate Edition


Год выпуска: 2016
Страна: США
Жанр: фантастика, боевик, приключения
Продолжительность: 03:02:33
Перевод: Профессиональный многоголосый [FocusStudio], Дублированный - [iTunes + вставки авторский одноголосый А.Матвеев], Авторский одноголосый [А.Матвеев]
Субтитры: русские (Forced), русские (FocusStudio), русские (Notabenoid), русские (Матвеев), русские (Jet), английские, английские (SDH)
Режиссер: Зак Снайдер
В ролях: Генри Кавилл , Бен Аффлек , Галь Гадот , Эми Адамс , Джесси Айзенберг , Джереми Айронс , Дайан Лэйн , Лоренс Фишбёрн , Холли Хантер , Скут МакНэри , Каллэн Мулвей , Тао Окамото
Описание:
Опасаясь, что действия богоподобного супергероя так и останутся бесконтрольными, грозный и могущественный страж Готэм Сити бросает вызов самому почитаемому в наши дни спасителю Метрополиса, в то время как весь остальной мир решает, какой герой ему по-настоящему нужен. И пока Бэтмен и Супермен пребывают в состоянии войны друг с другом, возникает новая угроза, которая ставит человечество под самую большую опасность, с которой оно когда-либо сталкивалось.

PG-13 - Детям до 13 лет просмотр не желателен
Качество: BDRip 1080p
Контейнер (Расширение): MKV
Видео: 1920x800, 16949 Кбит/сек, 23,976 кадр/сек, 0,450 Бит/[Пиксели*Кадры]
Аудио №1: русский / AC3 / 5.1 / 48 kHz / 640 kbps / 16 bit |Профессиональный многоголосый, FocusStudio|
Аудио №2: русский / AC3 / 5.1 / 48 kHz / 384 kbps / 16 bit |Дублированный - [iTunes + вставки авторский одноголосый А.Матвеев]|
Аудио №3: русский / AC3 / 5.1 / 48 kHz / 640 kbps / 16 bit |Авторский одноголосый А.Матвеев|
Аудио №4: английский / AC3 / 5.1 / 48 kHz / 640 kbps / 16 bit
Навигация по главам(Чаптеры): есть
Видеоряд: TayTOРелиз от: Сообщество:
Звуковые дорожки и субтитры отдельно:

Код:

Format                      : Matroska
Format version              : Version 2
File size                   : 24.6 GiB
Duration                    : 3h 2mn
Overall bit rate            : 19.3 Mbps
Movie name                  : Batman v Superman: Dawn of Justice.(2016).BDRip.1080p.[denis100].[Extended Cut]
Encoded date                : UTC 2016-08-02 10:40:18
Writing application         : mkvmerge v5.8.0 ('No Sleep / Pillow') built on Sep  2 2012 15:37:04
Writing library             : libebml v1.2.3 + libmatroska v1.3.0

Video
ID                          : 1
Format                      : AVC
Format/Info                 : Advanced Video Codec
Format profile              : High@L4.1
Format settings, CABAC      : Yes
Format settings, ReFrames   : 5 frames
Codec ID                    : V_MPEG4/ISO/AVC
Duration                    : 3h 2mn
Bit rate                    : 16.6 Mbps
Width                       : 1 920 pixels
Height                      : 800 pixels
Display aspect ratio        : 2.40:1
Frame rate mode             : Constant
Frame rate                  : 23.976 fps
Color space                 : YUV
Chroma subsampling          : 4:2:0
Bit depth                   : 8 bits
Scan type                   : Progressive
Bits/(Pixel*Frame)          : 0.450
Stream size                 : 21.1 GiB (86%)
Title                       : Batman v Superman: Dawn of Justice.(2016).BDRip.1080p.[denis100].[Extended Cut]
Writing library             : x264 core 142 r2431+42 c69a006 TayTO[8-bit@all X86_64]
Encoding settings           : cabac=1 / ref=5 / deblock=1:-3:-3 / analyse=0x3:0x133 / me=umh / subme=11 / psy=1 / fade_compensate=0.00 / psy_rd=1.05:0.00 / mixed_ref=1 / me_range=32 / chroma_me=1 / trellis=2 / 8x8dct=1 / cqm=0 / deadzone=21,11 / fast_pskip=0 / chroma_qp_offset=-2 / threads=12 / lookahead_threads=2 / sliced_threads=0 / nr=0 / decimate=0 / interlaced=0 / bluray_compat=0 / constrained_intra=0 / fgo=0 / bframes=9 / b_pyramid=2 / b_adapt=2 / b_bias=0 / direct=3 / weightb=1 / open_gop=0 / weightp=2 / keyint=250 / keyint_min=23 / scenecut=40 / intra_refresh=0 / rc_lookahead=60 / rc=crf / mbtree=0 / crf=18.5000 / qcomp=0.65 / qpmin=0:0:0 / qpmax=69:69:69 / qpstep=4 / vbv_maxrate=62500 / vbv_bufsize=78125 / crf_max=0.0 / nal_hrd=none / filler=0 / ip_ratio=1.30 / pb_ratio=1.20 / aq=3:0.70 / aq-sensitivity=10.00 / aq-factor=1.00:1.00:1.00 / aq2=0 / aq3=0 / zones=930,1060,crf=14/1137,1269,crf=14/1888,2000,crf=14/2444,2489,crf=14/2925,3024,crf=14/3609,3675,crf=14/6017,6261,crf=14/6390,6845,crf=14/14300,14396,crf=14/15215,15321,crf=14/15464,15619,crf=14/15620,16670,crf=18.9/18577,21597,crf=18.9/42123,47619,crf=18.9/48171,53449,crf=18.9/56105,59157,crf=18.9/62016,62374,crf=18.9/69490,69535,crf=14/77811,77879,crf=14/87712,89270,crf=18.9/90435,92797,crf=18/94270,94320,crf=14/98823,98952,crf=14/100961,101926,crf=18.9/104515,108138,crf=18.9/108139,108281,crf=14/109028,109070,crf=14/109308,109326,crf=14/109667,109697,crf=14/109881,109927,crf=14/110181,110214,crf=14/110390,110672,crf=14/111112,111163,crf=14/111303,111376,crf=14/111431,111899,crf=14/112143,112600,crf=14/114974,115037,crf=14/115122,115267,crf=14/119475,121921,crf=18.9/122060,122663,crf=18.9/126763,127325,crf=18.9/130828,130904,crf=18.9/131821,133907,crf=18.9/139708,140929,crf=18/141233,141323,crf=18/142355,142374,crf=14/144468,146385,crf=14/146386,148128,crf=18.9/150714,151068,crf=18.9/154073,154284,crf=18.9/157405,157464,crf=14/158041,158052,crf=14/158106,158412,crf=14/158426,158732,crf=14/158930,159136,crf=18.9/160204,160423,crf=14/160424,160677,crf=18/160731,160978,crf=14/160979,161107,crf=18/161226,161389,crf=14/162793,162880,crf=14/162905,162972,crf=12/162985,163004,crf=14/163215,163333,crf=14/163553,163905,crf=14/164143,164390,crf=14/167040,167078,crf=14/167423,167451,crf=14/167619,167661,crf=14/167722,167833,crf=14/169046,169430,crf=14/170418,170667,crf=18.9/174732,174737,crf=14/174881,174908,crf=14/176000,176003,crf=14/176479,176732,crf=18.9/176790,177225,crf=18/177423,177775,crf=18.2/177790,178429,crf=18/178430,178434,crf=14/178439,178537,crf=18/178538,178539,crf=14/178542,178544,crf=12/178562,178564,crf=14/178573,178579,crf=14/178658,178660,crf=14/178664,179477,crf=14/179559,179594,crf=18/179603,179620,crf=18/179621,179642,crf=14/179643,179793,crf=18/179797,179798,crf=18/179804,179893,crf=18/179900,180128,crf=18/180180,180218,crf=14/185323,185365,crf=12/189756,189773,crf=14/189994,190049,crf=14/193139,193190,crf=14/194773,194842,crf=14/195129,195219,crf=18/200430,200471,crf=14/201397,201429,crf=14/205212,205233,crf=14/205367,205746,crf=18/205747,205784,crf=14/205888,206150,crf=14/206472,206503,crf=14/206535,206563,crf=14/206611,206624,crf=14/206684,206935,crf=18.9/208031,208100,crf=14/208101,208416,crf=18/208417,208422,crf=14/208488,208495,crf=14/208514,208539,crf=14/208540,208667,crf=18/208668,208743,crf=12/208917,208984,crf=18/209322,209645,crf=18/209646,210601,crf=18.9/210644,210735,crf=14/210761,210829,crf=14/210871,211032,crf=14/211265,211312,crf=14/211535,211705,crf=14/212131,212787,crf=18.9/213193,213193,crf=14/213370,213380,crf=14/213779,214071,crf=18.9/214433,214460,crf=18/214522,214531,crf=18/214690,214773,crf=18.9/215173,215272,crf=18.9/215530,215595,crf=14/215880,215970,crf=14/216289,216352,crf=14/216428,216459,crf=12/216477,216491,crf=14/216557,216566,crf=14/216715,216745,crf=14/216886,216935,crf=12/217142,217231,crf=14/217303,217368,crf=18/217536,217560,crf=14/218387,218463,crf=14/219395,219428,crf=14/219688,219722,crf=14/220620,220647,crf=14/220990,221000,crf=14/221492,221926,crf=14/221957,222013,crf=14/222085,222179,crf=14/222502,222684,crf=14/225526,225641,crf=14/226534,226606,crf=14/226690,226752,crf=14/227528,227641,crf=14/228072,228075,crf=14/233089,246218,crf=18.9/246306,246311,crf=14/246318,246329,crf=14/246380,246412,crf=14/246416,246429,crf=14/246435,246436,crf=14/246488,246490,crf=14/246842,246930,crf=14/246931,246986,crf=14/248676,248791,crf=14/248792,250615,crf=18.9/250616,251014,crf=14/251360,262246,crf=23
Language                    : English
Default                     : Yes
Forced                      : No
Color range                 : Limited
Matrix coefficients         : BT.709

Audio #1
ID                          : 2
Format                      : AC-3
Format/Info                 : Audio Coding 3
Mode extension              : CM (complete main)
Format settings, Endianness : Big
Codec ID                    : A_AC3
Duration                    : 3h 2mn
Bit rate mode               : Constant
Bit rate                    : 640 Kbps
Channel(s)                  : 6 channels
Channel positions           : Front: L C R, Side: L R, LFE
Sampling rate               : 48.0 KHz
Compression mode            : Lossy
Stream size                 : 836 MiB (3%)
Title                       : MVO, FocusStudio
Language                    : Russian
Default                     : Yes
Forced                      : No

Audio #2
ID                          : 3
Format                      : AC-3
Format/Info                 : Audio Coding 3
Mode extension              : CM (complete main)
Format settings, Endianness : Big
Codec ID                    : A_AC3
Duration                    : 3h 2mn
Bit rate mode               : Constant
Bit rate                    : 384 Kbps
Channel(s)                  : 6 channels
Channel positions           : Front: L C R, Side: L R, LFE
Sampling rate               : 48.0 KHz
Compression mode            : Lossy
Stream size                 : 501 MiB (2%)
Title                       : Дубляж + Матвеев
Language                    : Russian
Default                     : No
Forced                      : No

Audio #3
ID                          : 4
Format                      : AC-3
Format/Info                 : Audio Coding 3
Mode extension              : CM (complete main)
Format settings, Endianness : Big
Codec ID                    : A_AC3
Duration                    : 3h 2mn
Bit rate mode               : Constant
Bit rate                    : 640 Kbps
Channel(s)                  : 6 channels
Channel positions           : Front: L C R, Side: L R, LFE
Sampling rate               : 48.0 KHz
Compression mode            : Lossy
Stream size                 : 836 MiB (3%)
Title                       : AVO, Матвеев
Language                    : Russian
Default                     : No
Forced                      : No

Audio #4
ID                          : 5
Format                      : AC-3
Format/Info                 : Audio Coding 3
Mode extension              : CM (complete main)
Format settings, Endianness : Big
Codec ID                    : A_AC3
Duration                    : 3h 2mn
Bit rate mode               : Constant
Bit rate                    : 640 Kbps
Channel(s)                  : 6 channels
Channel positions           : Front: L C R, Side: L R, LFE
Sampling rate               : 48.0 KHz
Compression mode            : Lossy
Stream size                 : 836 MiB (3%)
Language                    : English
Default                     : No
Forced                      : No

Text #1
ID                          : 6
Format                      : UTF-8
Codec ID                    : S_TEXT/UTF8
Codec ID/Info               : UTF-8 Plain Text
Title                       : Forced
Language                    : Russian
Default                     : Yes
Forced                      : No

Text #2
ID                          : 7
Format                      : UTF-8
Codec ID                    : S_TEXT/UTF8
Codec ID/Info               : UTF-8 Plain Text
Title                       : FocusStudio
Language                    : Russian
Default                     : No
Forced                      : No

Text #3
ID                          : 8
Format                      : UTF-8
Codec ID                    : S_TEXT/UTF8
Codec ID/Info               : UTF-8 Plain Text
Title                       : Notabenoid
Language                    : Russian
Default                     : No
Forced                      : No

Text #4
ID                          : 9
Format                      : UTF-8
Codec ID                    : S_TEXT/UTF8
Codec ID/Info               : UTF-8 Plain Text
Title                       : Матвеев
Language                    : Russian
Default                     : No
Forced                      : No

Text #5
ID                          : 10
Format                      : UTF-8
Codec ID                    : S_TEXT/UTF8
Codec ID/Info               : UTF-8 Plain Text
Title                       : Jet
Language                    : Russian
Default                     : No
Forced                      : No

Text #6
ID                          : 11
Format                      : UTF-8
Codec ID                    : S_TEXT/UTF8
Codec ID/Info               : UTF-8 Plain Text
Language                    : English
Default                     : No
Forced                      : No

Text #7
ID                          : 12
Format                      : UTF-8
Codec ID                    : S_TEXT/UTF8
Codec ID/Info               : UTF-8 Plain Text
Title                       : SDH
Language                    : English
Default                     : No
Forced                      : No

Menu
00:00:00.000                : :00:00:00.000
00:10:10.652                : :00:10:10.652
00:27:00.661                : :00:27:00.661
00:37:49.225                : :00:37:49.225
00:46:54.520                : :00:46:54.520
01:02:04.971                : :01:02:04.971
01:14:10.613                : :01:14:10.613
01:28:07.115                : :01:28:07.115
01:41:46.642                : :01:41:46.642
01:53:52.617                : :01:53:52.617
02:02:58.079                : :02:02:58.079
02:15:04.054                : :02:15:04.054
02:27:55.075                : :02:27:55.075
02:36:51.444                : :02:36:51.444
02:48:27.514                : :02:48:27.514
02:54:43.765                : :02:54:43.765

pb.wtf



Скачать Бэтмен против Супермена: На заре справедливости через торрент http://i2.imageban.ru/out/2016/07/18/0c27a0c580194475fabb99c95ff6fa32.png Скачать фильм Бэтмен против Супермена: На заре справедливости через торрент бесплантно в хорошем качестве Описание:Опасаясь, что действия богоподобного супергероя так и останутся бесконтрольными, грозный и могущественный страж Готэм Сити бросает ... 7.7 10 18
Info! Золотая раздача, скачанное не засчитывается.
Торрент: Зарегистрирован [2016-08-02 12:06] · скачан: 581 раз
Статус: √ проверено
Размер: 24.56 GB
Как cкачать? Как скачать Бэтмен против Супермена: На заре справедливости через торрент | qTorrent

% Раздел Тема Автор DL S | L
Фильмы [HD 720p, 1080p] (Хороший звук DUB, MVO) [ 16.89 GB ] Бэтмен против Супермена: На заре справедливости / Batman v Superman: Dawn of Justice [2016 BDRip-HEVC 1080p] DUB + MVO + 4xAVO + 2xVO RealOldGamer Скачать
2 | 0
Ultra HD (UHD: 2K, 4K, 8K) — видео сверхвысокой чёткости [ 119.48 GB ] Бэтмен против Супермена: На заре справедливости / Batman v Superman: Dawn of Justice [2016 UHD BDRemux 2160p] DUB + MVO + 4xAVO + VO [Расширенная версия] sheker187 Скачать
1 | 0
Фильмы (Blu-ray, BD-Remux, HDDVD) [ 80.66 GB ] Бэтмен против Супермена: На заре справедливости / Batman v Superman: Dawn of Justice [2016 BDRemux 1080p] [Ultimate Edition] DUB+MVO +2xVO+3xAVO bober100 Скачать
1 | 0
Фильмы [HD 720p, 1080p] (Хороший звук DUB, MVO) [ 12.18 GB ] Бэтмен против Супермена: На заре справедливости / Batman v Superman: Dawn of Justice [2016 BDRip 720p от _denis_100 / NNNB] DUB + MVO + AVO _denis_100 Скачать
1 | 0

28-11-2019 20:33  

Отключить всю рекламу на сайте

02-08-2016 15:07 Бэтмен против Супермена: На заре справедливости Скачать торрент  

Скажите пожалуйста, перевод Матвеева с цензурой или без?pb.wtf



02-08-2016 19:20 Бэтмен против Супермена: На заре справедливости Скачать торрент  

tolikss330 писал(а):

Скажите пожалуйста, перевод Матвеева с цензурой или без?

с цензурой

p.s. Есть две версии перевода, с цензурой и без, разница в двух словахpb.wtf



02-08-2016 20:41 Бэтмен против Супермена: На заре справедливости Скачать торрент  

Фильм неочем и неоком...pb.wtf



22-08-2016 10:35 Бэтмен против Супермена: На заре справедливости Скачать торрент  

bober100 писал(а):

Фильм неочем и неоком...

Последнее время они все такие!!!pb.wtf



    Дорогой пользователь! Огромная просьба, поблагодарите релизера, оцените раздачу и оставьте свои комментарий, если Вы скачали Бэтмен против Супермена: На заре справедливости через торрент бесплатно! Внесите свою лепту в развитие PiratBit!
    Комментировать посты могут только пользователи прошедшие не сложную регистрацию
    Показать сообщения:    

    Бэтмен против Супермена: На заре справедливости через торрент
    Скачать бесплатно Бэтмен против Супермена: На заре справедливости
    Бэтмен против Супермена: На заре справедливости скачать торрент
    Бэтмен против Супермена: На заре справедливости смотреть онлайн
    Cкачать фильм Бэтмен против Супермена: На заре справедливости бесплатно
    Бэтмен против Супермена: На заре справедливости скачать торрент в хорошем качестве
    Бэтмен против Супермена: На заре справедливости смотреть онлайн бесплатно в хорошем качестве


    Вы не можете начинать темы
    Вы не можете отвечать на сообщения
    Вы не можете редактировать свои сообщения
    Вы не можете удалять свои сообщения
    Вы не можете голосовать в опросах
    Вы не можете прикреплять файлы к сообщениям
    Вы можете скачивать файлы