Ссылка на приватное зеркало нашего сайта всего за 1$. Внимание количество ограничено!!!

2 сезон

iTunes

1 сезон

1

2 сезон

2 сезон

iTunes

1 сезон

RePack

30

Новинка

ВАЖНО

ИГРА 18+

pack

RePack

MK11
pack

Забери бонус

RePack

jed

!!Акция!!

Alien_Rage

RePack

fifa19

RePack

Assassins Creed: Odyssey

RePack

NEED FOR SPEED™ PAYBACK

4 сезон

9 сезон

Бесстыжие 9 сезон

Все сериалы

все сериалы на PB.wtf

RePack

FAR CRY 5
  

Преступление на почве страсти / Crimes of Passion (Кен Рассел) [1984, триллер, драма, мелодрама, BDRip 1080p by msltel] MVO pb.wtf

Преступление на почве страсти через торрент pb.wtf

Размер: 14.71 GB | Добавлен: 4 года 3 мес. назад | Торрент скачан:5 раз
Скачать  

14-08-2016 06:43 Преступление на почве страсти Скачать торрент  

Название: Преступление на почве страсти
Оригинальное название: Crimes of Passion
Год выпуска: 1984
Страна: США
Жанр: триллер, драма, мелодрама
Продолжительность: 01:52:35
Перевод: профессиональный многоголосый

Режиссёр: Кен Рассел

В ролях: Кэтлин Тёрнер, Энтони Перкинс, Джон Лофлин, Энни Поттс, Брюс Дэвисон, Стивен Ли, Пэт МакНамара, Кристина Лэндж, Сет Уэйджермен, Джозеф Чэпмен

Описание: Героиня фильма живёт двойной жизнью: днём она - преуспевающая, очаровательная, но недоступная модельер-дизайнер Джоанна, а вечером — поднаторевшая в изощрённых сексуальных играх проститутка по кличке «Голубая китаянка», воплощение необузданного эротизма и сексуальной раскованности. Однажды у «Голубой китаянки» появляется новый клиент - частный детектив Грейди. Они вызывают друг в друге такой любовный голод, какого ни один из них прежде не испытывал. С одной стороны, они стыдятся чувств, пробуждённых ими друг в друге, с другой - их взаимно притягивает неукротимое желание и всё основательнее запутывает в сети, сотканной из греховных соблазнов и опасных страстей...



Качество: BDRip 1080p Сравнение с исходником
Формат: MKV
Видео: MPEG-4 AVC, 17.7 Mбит/с, 1920x1040, 23,976 кадра/с
Аудио 1: русский, AC3, 224 kbps, 2 ch, 48 kHz [профессиональный многоголосый]
Аудио 2: английский, DTS, 768 kbps, 1 ch, 48 kHz [оригинал]
Субтитры 1: русские (на места без перевода)
Субтитры 2: английские (для слабослышащих)
Общее
Уникальный идентификатор : 211350469935800281175899461908645854147 (0x9F009EB084E18948A0235FE5A4D0BBC3)
Полное имя : D:\Video\Преступление на почве страсти.1984.BDRip.1080p.mkv
Формат : Matroska
Версия формата : Version 4 / Version 2
Размер файла : 14,7 Гбайт
Продолжительность : 1 ч. 52 м.
Общий поток : 18,7 Мбит/сек
Дата кодирования : UTC 2016-08-13 03:20:05
Программа кодирования : mkvmerge v8.2.0 ('World of Adventure') 64bit
Библиотека кодирования : libebml v1.3.1 + libmatroska v1.4.2

Видео
Идентификатор : 1
Формат : AVC
Формат/Информация : Advanced Video Codec
Профиль формата : High@L4.1
Параметр CABAC формата : Да
Параметр ReFrames формата : 4 кадра
Идентификатор кодека : V_MPEG4/ISO/AVC
Продолжительность : 1 ч. 52 м.
Битрейт : 17,7 Мбит/сек
Ширина : 1920 пикселей
Высота : 1040 пикселей
Соотношение сторон : 1,85:1
Режим частоты кадров : Постоянный
Частота кадров : 23,976 (24000/1001) кадра/сек
Цветовое пространство : YUV
Субдискретизация насыщенности : 4:2:0
Битовая глубина : 8 бит
Тип развёртки : Прогрессивная
Бит/(Пиксели*Кадры) : 0.370
Размер потока : 13,9 Гбайт (95%)
Библиотека кодирования : x264 core 146 r2538 121396c
Настройки программы : cabac=1 / ref=4 / deblock=1:-3:-3 / analyse=0x3:0x113 / me=umh / subme=10 / psy=1 / psy_rd=1.00:0.15 / mixed_ref=1 / me_range=32 / chroma_me=1 / trellis=2 / 8x8dct=1 / cqm=0 / deadzone=21,11 / fast_pskip=1 / chroma_qp_offset=-3 / threads=6 / lookahead_threads=1 / sliced_threads=0 / nr=0 / decimate=1 / interlaced=0 / bluray_compat=0 / constrained_intra=0 / bframes=14 / b_pyramid=2 / b_adapt=2 / b_bias=0 / direct=1 / weightb=1 / open_gop=0 / weightp=2 / keyint=230 / keyint_min=23 / scenecut=40 / intra_refresh=0 / rc_lookahead=40 / rc=crf / mbtree=0 / crf=20.8 / qcomp=0.60 / qpmin=0 / qpmax=69 / qpstep=4 / vbv_maxrate=40000 / vbv_bufsize=50000 / crf_max=0.0 / nal_hrd=none / filler=0 / ip_ratio=1.40 / pb_ratio=1.30 / aq=1:1.00
Язык : English
Default : Да
Forced : Нет

Аудио #1
Идентификатор : 2
Формат : AC-3
Формат/Информация : Audio Coding 3
Расширение режима : CM (complete main)
Параметр Endianness формата : Big
Идентификатор кодека : A_AC3
Продолжительность : 1 ч. 52 м.
Вид битрейта : Постоянный
Битрейт : 224 Кбит/сек
Каналы : 2 канала
Расположение каналов : Front: L R
Частота : 48,0 КГц
Частота кадров : 31,250 кадров/сек (1536 spf)
Метод сжатия : С потерями
Размер потока : 180 Мбайт (1%)
Заголовок : MVO
Язык : Russian
Default : Да
Forced : Нет

Аудио #2
Идентификатор : 3
Формат : DTS
Формат/Информация : Digital Theater Systems
Режим : 16
Параметр Endianness формата : Big
Идентификатор кодека : A_DTS
Продолжительность : 1 ч. 52 м.
Вид битрейта : Постоянный
Битрейт : 768 Кбит/сек
Каналы : 1 канал
Расположение каналов : Front: C
Частота : 48,0 КГц
Частота кадров : 93,750 кадра/сек (512 spf)
Битовая глубина : 24 бит
Метод сжатия : С потерями
Размер потока : 618 Мбайт (4%)
Заголовок : original
Язык : English
Default : Нет
Forced : Нет

Текст #1
Идентификатор : 4
Формат : UTF-8
Идентификатор кодека : S_TEXT/UTF8
Идентификатор кодека/Информация : UTF-8 Plain Text
Продолжительность : 38 м.
Битрейт : 16 бит/сек
Count of elements : 72
Размер потока : 4,64 Кбайт (0%)
Заголовок : русские (на места без перевода)
Язык : Russian
Default : Да
Forced : Да

Текст #2
Идентификатор : 5
Формат : UTF-8
Идентификатор кодека : S_TEXT/UTF8
Идентификатор кодека/Информация : UTF-8 Plain Text
Продолжительность : 1 ч. 50 м.
Битрейт : 74 бит/сек
Count of elements : 1347
Размер потока : 60,0 Кбайт (0%)
Заголовок : английские (для слабослышащих)
Язык : English
Default : Нет
Forced : Нет
pb.wtf



Скачать Преступление на почве страсти через торрент http://s019.radikal.ru/i634/1608/14/75c27561d2ec.jpg Скачать фильм Преступление на почве страсти через торрент бесплантно в хорошем качестве Описание: Героиня фильма живёт двойной жизнью: днём она - преуспевающая, очаровательная, но недоступная модельер-дизайнер Джоанна, а ... 10 10 3
Info! Золотая раздача, скачанное не засчитывается.
Торрент: Зарегистрирован [2016-08-14 06:43] · скачан: 5 раз
Статус: √ проверено
Размер: 14.71 GB
Как cкачать? Как скачать Преступление на почве страсти через торрент | qTorrent

% Раздел Тема Автор DL S | L
Фильмы [HD 720p, 1080p] (Хороший звук DUB, MVO) [ 4.98 GB ] Преступление на почве страсти / Crimes of Passion [1984 BDRip 720p by msltel] MVO msltel Скачать
1 | 0

28-11-2019 20:33  

Отключить всю рекламу на сайте

16-08-2016 02:28 Преступление на почве страсти Скачать торрент  

Норм фильм)pb.wtf



    Дорогой пользователь! Огромная просьба, поблагодарите релизера, оцените раздачу и оставьте свои комментарий, если Вы скачали Преступление на почве страсти через торрент бесплатно! Внесите свою лепту в развитие PiratBit!
    Комментировать посты могут только пользователи прошедшие не сложную регистрацию
    Показать сообщения:    

    Преступление на почве страсти через торрент
    Скачать бесплатно Преступление на почве страсти
    Преступление на почве страсти скачать торрент
    Преступление на почве страсти смотреть онлайн
    Cкачать фильм Преступление на почве страсти бесплатно
    Преступление на почве страсти скачать торрент в хорошем качестве
    Преступление на почве страсти смотреть онлайн бесплатно в хорошем качестве


    Вы не можете начинать темы
    Вы не можете отвечать на сообщения
    Вы не можете редактировать свои сообщения
    Вы не можете удалять свои сообщения
    Вы не можете голосовать в опросах
    Вы не можете прикреплять файлы к сообщениям
    Вы можете скачивать файлы