Ссылка на приватное зеркало нашего сайта всего за 1$. Внимание количество ограничено!!!

2 сезон

iTunes

1 сезон

1

2 сезон

2 сезон

iTunes

1 сезон

RePack

30

Ultimate

ВАЖНО

ИГРА 18+

pack

RePack

MK11
pack

Забери бонус

RePack

jed

!!Акция!!

Alien_Rage

RePack

fifa19

RePack

Assassins Creed: Odyssey

RePack

NEED FOR SPEED™ PAYBACK

4 сезон

9 сезон

Бесстыжие 9 сезон

Все сериалы

все сериалы на PB.wtf

RePack

FAR CRY 5
  

Полетта / Paulette (Жером Энрико) [2012, комедия, криминал, драма, BDRip 720p by msltel] DUB pb.wtf

Полетта через торрент pb.wtf

Размер: 4.02 GB | Добавлен: 4 года 2 мес. назад | Торрент скачан:74 раза
Скачать  

31-08-2016 06:37 Полетта Скачать торрент  

Название: Полетта
Оригинальное название: Paulette
Год выпуска: 2012
Страна: Франция
Жанр: комедия, криминал, драма
Продолжительность: 01:26:49
Перевод: дублированный

Режиссёр: Жером Энрико

В ролях: Бернадетт Лафон, Кармен Маура, Доминик Лаванан, Франсуаз Бертен, Андре Пенверн, Исмаэль Драме, Жан-Баптист Анумон, Аксель Лафон, Пако Бублар, Махмаду Кулибали

Описание: Полетт — вредная старушка с непростым характером. Она ненавидит соседей, поскольку те мусорят и шумят. Она не любит своего внука и придумала ему прозвище Черныш, поскольку дочь вышла замуж за чернокожего полицейского (зятя Полетт называет Обамой). Когда социальные службы начинают за долги описывать её имущество, она принимает нестандартное решение: отправляется к местному наркодилеру и предлагает свои услуги. Бандиты ошеломлены, но бабушка находит убедительные доводы, чтобы её приняли на работу. Не проходит и месяца, как Полетт становится крупнейшим торговцем всех видов наркотиков в районе. Бизнес процветает, жизнь налаживается, однако любопытные подруги, зять, любвеобильный сосед и бандиты не дают насладиться ей обретённым благосостоянием...



Качество: BDRip 720p Сравнение с исходником
Формат: MKV
Видео: MPEG-4 AVC, 5801 Кбит/с, 1280x692, 24 кадра/с
Аудио 1: русский, AC3, 384 kbps, 6 ch, 48 kHz [дублированный]
Аудио 2: французский, AC3, 448 kbps, 6 ch, 48 kHz [оригинал]
Субтитры 1: русские
Субтитры 2: английские
Субтитры 3: французские
Общее
Уникальный идентификатор : 241424961284092896936965676765004307712 (0xB5A0C1980636F40E9DE3873F738E1D00)
Полное имя : D:\Video\Полетта.2012.BDRip.720p.mkv
Формат : Matroska
Версия формата : Version 4 / Version 2
Размер файла : 4,02 Гбайт
Продолжительность : 1 ч. 26 м.
Общий поток : 6635 Кбит/сек
Дата кодирования : UTC 2016-08-31 03:32:48
Программа кодирования : mkvmerge v8.2.0 ('World of Adventure') 64bit
Библиотека кодирования : libebml v1.3.1 + libmatroska v1.4.2

Видео
Идентификатор : 1
Формат : AVC
Формат/Информация : Advanced Video Codec
Профиль формата : High@L4.1
Параметр CABAC формата : Да
Параметр ReFrames формата : 9 кадров
Идентификатор кодека : V_MPEG4/ISO/AVC
Продолжительность : 1 ч. 26 м.
Битрейт : 5801 Кбит/сек
Ширина : 1280 пикселей
Высота : 692 пикселя
Соотношение сторон : 1,85:1
Режим частоты кадров : Постоянный
Частота кадров : 24,000 кадра/сек
Цветовое пространство : YUV
Субдискретизация насыщенности : 4:2:0
Битовая глубина : 8 бит
Тип развёртки : Прогрессивная
Бит/(Пиксели*Кадры) : 0.273
Размер потока : 3,52 Гбайт (87%)
Библиотека кодирования : x264 core 146 r2538 121396c
Настройки программы : cabac=1 / ref=9 / deblock=1:-1:-1 / analyse=0x3:0x113 / me=umh / subme=10 / psy=1 / psy_rd=1.00:0.15 / mixed_ref=1 / me_range=32 / chroma_me=1 / trellis=2 / 8x8dct=1 / cqm=0 / deadzone=21,11 / fast_pskip=1 / chroma_qp_offset=-3 / threads=6 / lookahead_threads=1 / sliced_threads=0 / nr=0 / decimate=1 / interlaced=0 / bluray_compat=0 / constrained_intra=0 / bframes=10 / b_pyramid=2 / b_adapt=2 / b_bias=0 / direct=1 / weightb=1 / open_gop=0 / weightp=2 / keyint=230 / keyint_min=23 / scenecut=40 / intra_refresh=0 / rc_lookahead=40 / rc=crf / mbtree=0 / crf=17.5 / qcomp=0.60 / qpmin=0 / qpmax=69 / qpstep=4 / vbv_maxrate=40000 / vbv_bufsize=50000 / crf_max=0.0 / nal_hrd=none / filler=0 / ip_ratio=1.40 / pb_ratio=1.30 / aq=1:1.00
Язык : French
Default : Да
Forced : Нет

Аудио #1
Идентификатор : 2
Формат : AC-3
Формат/Информация : Audio Coding 3
Расширение режима : CM (complete main)
Параметр Endianness формата : Big
Идентификатор кодека : A_AC3
Продолжительность : 1 ч. 26 м.
Вид битрейта : Постоянный
Битрейт : 384 Кбит/сек
Каналы : 6 каналов
Расположение каналов : Front: L C R, Side: L R, LFE
Частота : 48,0 КГц
Частота кадров : 31,250 кадров/сек (1536 spf)
Метод сжатия : С потерями
Размер потока : 238 Мбайт (6%)
Заголовок : DUB
Язык : Russian
Default : Да
Forced : Нет

Аудио #2
Идентификатор : 3
Формат : AC-3
Формат/Информация : Audio Coding 3
Расширение режима : CM (complete main)
Параметр Endianness формата : Big
Идентификатор кодека : A_AC3
Продолжительность : 1 ч. 26 м.
Вид битрейта : Постоянный
Битрейт : 448 Кбит/сек
Каналы : 6 каналов
Расположение каналов : Front: L C R, Side: L R, LFE
Частота : 48,0 КГц
Частота кадров : 31,250 кадров/сек (1536 spf)
Метод сжатия : С потерями
Размер потока : 278 Мбайт (7%)
Заголовок : original
Язык : French
Default : Нет
Forced : Нет

Текст #1
Идентификатор : 4
Формат : UTF-8
Идентификатор кодека : S_TEXT/UTF8
Идентификатор кодека/Информация : UTF-8 Plain Text
Продолжительность : 1 ч. 22 м.
Битрейт : 96 бит/сек
Count of elements : 973
Размер потока : 57,8 Кбайт (0%)
Заголовок : русские
Язык : Russian
Default : Нет
Forced : Нет

Текст #2
Идентификатор : 5
Формат : UTF-8
Идентификатор кодека : S_TEXT/UTF8
Идентификатор кодека/Информация : UTF-8 Plain Text
Продолжительность : 1 ч. 25 м.
Битрейт : 39 бит/сек
Count of elements : 1102
Размер потока : 24,9 Кбайт (0%)
Заголовок : английские
Язык : English
Default : Нет
Forced : Нет

Текст #3
Идентификатор : 6
Формат : UTF-8
Идентификатор кодека : S_TEXT/UTF8
Идентификатор кодека/Информация : UTF-8 Plain Text
Продолжительность : 1 ч. 24 м.
Битрейт : 52 бит/сек
Count of elements : 1257
Размер потока : 32,3 Кбайт (0%)
Заголовок : французские
Язык : French
Default : Нет
Forced : Нет
pb.wtf



Скачать Полетта через торрент http://s019.radikal.ru/i631/1608/18/10a93c324b46.jpg Скачать фильм Полетта через торрент бесплантно в хорошем качестве Описание: Полетт — вредная старушка с непростым характером. Она ненавидит соседей, поскольку те мусорят и шумят. Она не любит своего внука ... 9 10 2
Info! Золотая раздача, скачанное не засчитывается.
Торрент: Зарегистрирован [2016-08-31 06:37] · скачан: 74 раз
Статус: √ проверено
Размер: 4.02 GB
Как cкачать? Как скачать Полетта через торрент | qTorrent

% Раздел Тема Автор DL S | L
Фильмы [HD 720p, 1080p] (Хороший звук DUB, MVO) [ 10.68 GB ] Полетта / Paulette [2012 BDRip 1080p by msltel] DUB msltel Скачать
1 | 0

28-11-2019 20:33  

Отключить всю рекламу на сайте

31-08-2016 07:07 Полетта Скачать торрент  

Надо бы глянуть как то pb.wtf



31-08-2016 08:31 Полетта Скачать торрент  

как фильм то? pb.wtf



31-08-2016 11:06 Полетта Скачать торрент  

Хороший фильм, смотрел именно в тот год, впечатления на 5/5pb.wtf



02-09-2016 19:07 Полетта Скачать торрент  

Даже и не знаю что в начале сделать - пожалеть французских пенсеров за то что они не могут выжить на 600 евро в месяц, или плюнуть в рожу нашим депутатам думающих что нашим старикам 100 евро в месяц достаточно...pb.wtf



    Дорогой пользователь! Огромная просьба, поблагодарите релизера, оцените раздачу и оставьте свои комментарий, если Вы скачали Полетта через торрент бесплатно! Внесите свою лепту в развитие PiratBit!
    Комментировать посты могут только пользователи прошедшие не сложную регистрацию
    Показать сообщения:    

    Полетта через торрент
    Скачать бесплатно Полетта
    Полетта скачать торрент
    Полетта смотреть онлайн
    Cкачать фильм Полетта бесплатно
    Полетта скачать торрент в хорошем качестве
    Полетта смотреть онлайн бесплатно в хорошем качестве


    Вы не можете начинать темы
    Вы не можете отвечать на сообщения
    Вы не можете редактировать свои сообщения
    Вы не можете удалять свои сообщения
    Вы не можете голосовать в опросах
    Вы не можете прикреплять файлы к сообщениям
    Вы можете скачивать файлы