Всегда рабочее зеркало без VPN и Proxy просто перед .vidak.icu напиши любое слово или цифру, Пример http://40dv.vidak.icu

MVO

2 сезон

1 сезон

1

1 сезон

iTunes

2 сезон

13

1 сезон

Распродажа

pack

Рекомендуем

Пиратка

30

ВАЖНО

RePack

MK11

RePack

jed

RePack

fifa19

RePack

RDR2

RePack

NEED FOR SPEED™ PAYBACK

Кинопоиск HD

6 сезон

 Острые козырьки 6 сезон

Все сериалы

все сериалы на PB.wtf

RePack

FAR CRY 5

Anonymous, нам критически не хватает 5601 руб. на оплату серверов и переферии за Апрель, помоги нам пожалуйста, вся надежда только на тебя. В благодарность мы отключим тебе всю рекламу на сайте!

×
  
Magnet ссылка

Азартные игры (Режиссёрская версия) / Reindeer Games (Director's Cut) (Джон Франкенхаймер) [2000, фэнтези, боевик, триллер, драма, мелодрама, криминал, приключения, BDRip 720p by msltel] 2 x AVO pb.wtf

Азартные игры через торрент pb.wtf

Размер: 5.16 GB | Добавлен: 5 лет 8 мес. назад | Торрент скачан:44 раза
Смотреть онлайн Азартные игры | Скачать    Ребята, помогите собрать деньги на оплату серверов!!!

05-09-2016 07:14 Азартные игры Скачать торрент  

Название: Азартные игры
Оригинальное название: Reindeer Games
Год выпуска: 2000
Страна: США
Жанр: фэнтези, боевик, триллер, драма, мелодрама, криминал, приключения
Продолжительность: 02:04:35
Перевод: авторский

Режиссёр: Джон Франкенхаймер

В ролях: Бен Аффлек, Гэри Синиз, Шарлиз Терон, Дэннис Фарина, Джеймс Фрейн, Донал Лог, Дэнни Трехо, Айзек Хейз, Гордон Тутусис, Дана Стаблфилд, Кларенс Уильямс III, Марк Эчесон, Том Хитон, Дуглас Артурс, Дин Рэй

Описание: Ловушки расставлены. Для дерзкого ограбления банде головорезов нужен некий Ник, знакомый с охранной системой процветающего казино. Вскоре он должен выйти из тюрьмы. В качестве приманки на встречу ему посылают красавицу Эшли, которая вела с ним заочную романтическую переписку. Ничего не подозревающий друг Ника Руди решает выдать себя за него, чтобы познакомиться с загадочной девушкой. И теперь эта затея может стоить ему жизни...



Качество: BDRip 720p Сравнение с исходником
Формат: MKV
Видео: MPEG-4 AVC, 4584 Кбит/с, 1280x544, 23,976 кадра/с
Аудио 1: русский, AC3, 448 kbps, 6 ch, 48 kHz [авторский, Андрей Гаврилов]
Аудио 2: русский, AC3, 448 kbps, 6 ch, 48 kHz [авторский, Евгений Гаевский]
Аудио 3: английский, AC3, 448 kbps, 6 ch, 48 kHz [оригинал]
Субтитры: английские
Общее
Уникальный идентификатор : 233420565592195006639890888686087465852 (0xAF9B2A6AB9620A6980CC0D6DA2046B7C)
Полное имя : D:\Video\Азартные игры.2000.DirCut.BDRip.720p.mkv
Формат : Matroska
Версия формата : Version 4 / Version 2
Размер файла : 5,16 Гбайт
Продолжительность : 2 ч. 4 м.
Общий поток : 5931 Кбит/сек
Дата кодирования : UTC 2016-09-05 03:09:03
Программа кодирования : mkvmerge v8.2.0 ('World of Adventure') 64bit
Библиотека кодирования : libebml v1.3.1 + libmatroska v1.4.2

Видео
Идентификатор : 1
Формат : AVC
Формат/Информация : Advanced Video Codec
Профиль формата : High@L4.1
Параметр CABAC формата : Да
Параметр ReFrames формата : 9 кадров
Идентификатор кодека : V_MPEG4/ISO/AVC
Продолжительность : 2 ч. 4 м.
Битрейт : 4584 Кбит/сек
Ширина : 1280 пикселей
Высота : 544 пикселя
Соотношение сторон : 2,35:1
Режим частоты кадров : Постоянный
Частота кадров : 23,976 (24000/1001) кадра/сек
Цветовое пространство : YUV
Субдискретизация насыщенности : 4:2:0
Битовая глубина : 8 бит
Тип развёртки : Прогрессивная
Бит/(Пиксели*Кадры) : 0.275
Размер потока : 3,99 Гбайт (77%)
Библиотека кодирования : x264 core 146 r2538 121396c
Настройки программы : cabac=1 / ref=9 / deblock=1:-3:-3 / analyse=0x3:0x113 / me=umh / subme=10 / psy=1 / psy_rd=1.00:0.15 / mixed_ref=1 / me_range=32 / chroma_me=1 / trellis=2 / 8x8dct=1 / cqm=0 / deadzone=21,11 / fast_pskip=1 / chroma_qp_offset=-3 / threads=6 / lookahead_threads=1 / sliced_threads=0 / nr=0 / decimate=1 / interlaced=0 / bluray_compat=0 / constrained_intra=0 / bframes=9 / b_pyramid=2 / b_adapt=2 / b_bias=0 / direct=1 / weightb=1 / open_gop=0 / weightp=2 / keyint=230 / keyint_min=23 / scenecut=40 / intra_refresh=0 / rc_lookahead=40 / rc=crf / mbtree=0 / crf=18.0 / qcomp=0.60 / qpmin=0 / qpmax=69 / qpstep=4 / vbv_maxrate=40000 / vbv_bufsize=50000 / crf_max=0.0 / nal_hrd=none / filler=0 / ip_ratio=1.40 / pb_ratio=1.30 / aq=1:1.00
Язык : English
Default : Да
Forced : Нет

Аудио #1
Идентификатор : 2
Формат : AC-3
Формат/Информация : Audio Coding 3
Расширение режима : CM (complete main)
Параметр Endianness формата : Big
Идентификатор кодека : A_AC3
Продолжительность : 2 ч. 4 м.
Вид битрейта : Постоянный
Битрейт : 448 Кбит/сек
Каналы : 6 каналов
Расположение каналов : Front: L C R, Side: L R, LFE
Частота : 48,0 КГц
Частота кадров : 31,250 кадров/сек (1536 spf)
Метод сжатия : С потерями
Размер потока : 399 Мбайт (8%)
Заголовок : AVO (Андрей Гаврилов)
Язык : Russian
Default : Да
Forced : Нет

Аудио #2
Идентификатор : 3
Формат : AC-3
Формат/Информация : Audio Coding 3
Расширение режима : CM (complete main)
Параметр Endianness формата : Big
Идентификатор кодека : A_AC3
Продолжительность : 2 ч. 4 м.
Вид битрейта : Постоянный
Битрейт : 448 Кбит/сек
Каналы : 6 каналов
Расположение каналов : Front: L C R, Side: L R, LFE
Частота : 48,0 КГц
Частота кадров : 31,250 кадров/сек (1536 spf)
Метод сжатия : С потерями
Размер потока : 399 Мбайт (8%)
Заголовок : AVO (Евгений Гаевский)
Язык : Russian
Default : Нет
Forced : Нет

Аудио #3
Идентификатор : 4
Формат : AC-3
Формат/Информация : Audio Coding 3
Расширение режима : CM (complete main)
Параметр Endianness формата : Big
Идентификатор кодека : A_AC3
Продолжительность : 2 ч. 4 м.
Вид битрейта : Постоянный
Битрейт : 448 Кбит/сек
Каналы : 6 каналов
Расположение каналов : Front: L C R, Side: L R, LFE
Частота : 48,0 КГц
Частота кадров : 31,250 кадров/сек (1536 spf)
Метод сжатия : С потерями
Размер потока : 399 Мбайт (8%)
Заголовок : original
Язык : English
Default : Нет
Forced : Нет

Текст
Идентификатор : 5
Формат : UTF-8
Идентификатор кодека : S_TEXT/UTF8
Идентификатор кодека/Информация : UTF-8 Plain Text
Продолжительность : 1 ч. 56 м.
Битрейт : 59 бит/сек
Count of elements : 1510
Размер потока : 50,7 Кбайт (0%)
Заголовок : английские
Язык : English
Default : Нет
Forced : Нет
pb.wtf



Скачать Азартные игры через торрент http://s020.radikal.ru/i719/1609/78/16ecbb77885b.jpg Скачать, смотреть онлайн Азартные игры бесплантно в хорошем качестве Описание: Ловушки расставлены. Для дерзкого ограбления банде головорезов нужен некий Ник, знакомый с охранной системой процветающего ... 10 10 2
Info! Золотая раздача, скачанное не засчитывается.
Торрент: Зарегистрирован [2016-09-05 07:14] · скачан: 44 раз
Статус: √ проверено
Размер: 5.16 GB
Как cкачать? Как скачать Азартные игры через торрент | UTorrent

% Раздел Тема Автор DL S | L
Фильмы с авторской озвучкой [ 15.35 GB ] Азартные игры / Reindeer Games [2000 BDRip 1080p by msltel] 2 x AVO msltel Скачать
1 | 0

28-11-2019 20:33  

Отключить всю рекламу на сайте

05-09-2016 09:01 Азартные игры Скачать торрент  

Рекомендую фильм к просмотру. Снят в то время когда в фильмах был сюжет и игра актеров, а не просто спецэффекты. Раздающему спасибо.pb.wtf



05-09-2016 10:16 Азартные игры Скачать торрент  

Крутое кино, но при чем тут Фентези?!pb.wtf



    Дорогой пользователь! Огромная просьба, поблагодарите релизера, оцените раздачу и оставьте свои комментарий, если Вы скачали Азартные игры через торрент бесплатно!
    Комментировать посты могут только пользователи прошедшие не сложную регистрацию
    Показать сообщения:    

    Азартные игры через торрент
    Скачать бесплатно Азартные игры
    Азартные игры скачать торрент
    Азартные игры смотреть онлайн
    Cкачать фильм Азартные игры бесплатно
    Азартные игры скачать торрент в хорошем качестве
    Азартные игры смотреть онлайн бесплатно в хорошем качестве


    Вы не можете начинать темы
    Вы не можете отвечать на сообщения
    Вы не можете редактировать свои сообщения
    Вы не можете удалять свои сообщения
    Вы не можете голосовать в опросах
    Вы не можете прикреплять файлы к сообщениям
    Вы можете скачивать файлы