Ссылка на приватное зеркало всего за 1$. Внимание количество ограничено!!!

OK

1+1

iTunes

мы

OK

1

WEB-DLRip

Джокер

Пифагор

Ведьмак / The Witcher сериал

iTunes

ПШазам

ОК

Оно 2

iTunes

30
pack

Вам бонус

ВАЖНО

!!Акция!!

Alien_RageХит недели

RePack

Resident Evil 21

ИГРА 18+

pack

RePack

jed

RePack

fifa19

RePack

Assassins Creed: Odyssey

RePack

NEED FOR SPEED™ PAYBACK

4 сезон

9 сезон

Бесстыжие 9 сезон

Все сериалы

все сериалы на PB.wtf

RePack

FAR CRY 5
  

Путевка в жизнь (Олег Галин) [2013 г., приключения, WEB-DLRip] Русский pb.wtf

Путевка в жизнь через торрент pb.wtf

Размер: 1.37 GB | Добавлен: 3 года 4 мес. назад | Торрент скачан:135 раз
Скачать  

04-09-2016 05:22 Путевка в жизнь Скачать торрент  

Путевка в жизнь
Год выпуска: 2013
Страна: Россия
Жанр: приключения
Продолжительность: 1 ч. 38 м.
Перевод: Не требуется Русский

Режиссер: Олег Галин
Продюссер: Федор Попов
Сценарий: Алла Криницына, Анатолий Шатских, Владимир Дегтярев

Бюджет: 55 700 000 руб.



В ролях: Сергей Гармаш
Илья Плисов
Александр Лобанов
Дмитрий Ермак
Клавдия Коршунова
Александра Шевченко
Егор Баринов
Олег Алмазов
Иван Косичкин
Дмитрий Лопарёв

Описание: Сюжет фильма основан на истории мальчика Ромки Бегункова с непростым характером, у которого отсутствует вера в людей, любовь и дружбу. Один только верный друг — маленькая собака по кличке Плут, живёт вместе с Ромой в приемной семье Ряхиных. Невыносимо тяжелая, и порой очень жестокая жизнь в этом доме, заставляет Рому пойти на крайнюю меру, сбежать, спасая свою жизнь и жизнь верной собаки Плута. Сбежав из «дома», Рома совершенно случайно попадает в воинскую часть, в самый разгар боевых учений. Армейские будни и строгий распорядок дня, оказались для Ромки, сложным испытанием. Знакомство, а в последствие и дружба с дочерью командира полка, Светой, пробуждают в мальчике, незнакомые ему чувства.

А тем временем бывший следователь Пушкарев, путем шантажа, заставляет приемного отца мальчика Ряхина и его брата Вируса пойти на преступление. Их план по проникновению в воинскую часть, и кражи электронной мины проходят на очень профессиональном уровне, и набирает обороты…

Качество: WEB-DLRip
Формат: AVI
Видео кодек: XviD
Аудио кодек: AC3
Видео: XviD,1784 Кбит/сек,720х304,25,000 кадров/сек
Аудио#1: AC-3,2ch,192 Кбит/сек
скриншот  скриншот  скриншот  

Общее
Полное имя : C:\Users\HanoWARo\Downloads\Pytevka.v.giznj.2014.ExKinoRay.avi
Формат : AVI
Формат/Информация : Audio Video Interleave
Размер файла : 1,37 Гбайт
Продолжительность : 1 ч. 38 м.
Общий поток : 1985 Кбит/сек
Программа кодирования : VirtualDubMod 1.5.10.3 | www.virtualdub-fr.org || (build 2550/release)
Библиотека кодирования : VirtualDubMod build 2550/release

Видео
Идентификатор : 0
Формат : MPEG-4 Visual
Профиль формата : Advanced Simple@L5
Параметр BVOP формата : 2
Параметр QPel формата : Нет
Параметр GMC формата : Без точки перехода
Параметр матрицы формата : Выборочная
Идентификатор кодека : XVID
Идентификатор кодека/Подсказка : XviD
Продолжительность : 1 ч. 38 м.
Битрейт : 1784 Кбит/сек
Ширина : 720 пикселей
Высота : 304 пикселя
Соотношение сторон : 2,35:1
Частота кадров : 25,000 кадров/сек
Цветовое пространство : YUV
Субдискретизация насыщенности : 4:2:0
Битовая глубина : 8 бит
Тип развёртки : Прогрессивная
Метод сжатия : С потерями
Бит/(Пиксели*Кадры) : 0.326
Размер потока : 1,23 Гбайт (90%)
Библиотека кодирования : XviD 73

Аудио
Идентификатор : 1
Формат : AC-3
Формат/Информация : Audio Coding 3
Расширение режима : CM (complete main)
Параметр Endianness формата : Big
Идентификатор кодека : 2000
Продолжительность : 1 ч. 38 м.
Вид битрейта : Постоянный
Битрейт : 192 Кбит/сек
Каналы : 2 канала
Расположение каналов : Front: L R
Частота : 44,1 КГц
Частота кадров : 28,711 кадров/сек (1536 spf)
Метод сжатия : С потерями
Размер потока : 136 Мбайт (10%)
Выравнивание : Разделение по промежуткам
Продолжительность промежутка : 40 мс. (1,00 видеокадр)
Время предзагрузки промежутка : 500 мс.

pb.wtf



Скачать Путевка в жизнь через торрент http://pic1.kartinco.top/images/10/yhbo8.jpg Скачать фильм Путевка в жизнь через торрент бесплантно в хорошем качестве Описание: Сюжет фильма основан на истории мальчика Ромки Бегункова с непростым характером, у которого отсутствует вера в людей, любовь и ... 8.3 10 8
Торрент: Зарегистрирован [2016-09-04 05:22] · скачан: 135 раз
Статус: √ проверено
Размер: 1.37 GB
Как cкачать? Как скачать Путевка в жизнь через торрент | qTorrent

28-11-2019 20:33  

Отключить всю рекламу на сайте

04-09-2016 08:50 Путевка в жизнь Скачать торрент  

забираем-спасибоpb.wtf



06-09-2016 05:38 Путевка в жизнь Скачать торрент  

как фильм?pb.wtf



    Дорогой пользователь! Огромная просьба, поблагодарите релизера, оцените раздачу и оставьте свои комментарий, если Вы скачали Путевка в жизнь через торрент бесплатно! Внесите свою лепту в развитие PiratBit!
    Комментировать посты могут только пользователи прошедшие не сложную регистрацию
    Показать сообщения:    

    Путевка в жизнь через торрент
    Скачать бесплатно Путевка в жизнь
    Путевка в жизнь скачать торрент
    Путевка в жизнь смотреть онлайн
    Cкачать фильм Путевка в жизнь бесплатно
    Путевка в жизнь скачать торрент в хорошем качестве
    Путевка в жизнь смотреть онлайн бесплатно в хорошем качестве


    Вы не можете начинать темы
    Вы не можете отвечать на сообщения
    Вы не можете редактировать свои сообщения
    Вы не можете удалять свои сообщения
    Вы не можете голосовать в опросах
    Вы не можете прикреплять файлы к сообщениям
    Вы можете скачивать файлы