Всегда рабочее зеркало без VPN и Proxy просто перед .vidak.icu напиши любое слово или цифру, Пример http://qp1l.vidak.icu

MVO

Лицензия

1 сезон

1

1 сезон

iTunes

1 сезон

13

1 сезон

Deluxe

pack

Рекомендуем

Пиратка

30

ВАЖНО

RePack

MK11

RePack

jed

RePack

fifa19

RePack

RDR2

RePack

NEED FOR SPEED™ PAYBACK

Кинопоиск HD

6 сезон

 Острые козырьки 6 сезон

Все сериалы

все сериалы на PB.wtf

RePack

FAR CRY 5

Anonymous, нам критически не хватает 2100 руб. на оплату серверов и переферии за МАЙ, помоги нам пожалуйста, вся надежда только на тебя. В благодарность мы отключим тебе всю рекламу на сайте!

×
  
Magnet ссылка

Темная дорога / Black Road (Гари Лунгрен ) [2016, фантастика, триллер, WEB-DLRip] MVO pb.wtf

Темная дорога через торрент pb.wtf

Размер: 1.37 GB | Добавлен: 5 лет 9 мес. назад | Торрент скачан:502 раза
Смотреть онлайн Темная дорога | Скачать    Ребята, помогите собрать деньги на оплату серверов!!!

13-09-2016 10:55 Темная дорога Скачать торрент  

Темная дорога / Black Road

Год выпуска: 2016
Страна: США
Жанр: фантастика, триллер
Продолжительность: 01:20:55
Перевод: Многоголосый закадровый, любительский (СПД)
Режиссер: Гари Лунгрен
В ролях: Сэм Дэйли (Dylan), Саймон Темплмен (Sterling), Лейлани Сарелл (Lisa), Мишель Ломбардо (Sarah), Kenajuan Bentley (Eddie), Дэнфорт Коминс (Bruce), Дэн Донохью (Dr. Paul), Майк Эстес (Mohawk), Michael Hovermale (Beer Seller), Kevin Kenerly (Frank), Флэннери Лунгрен (Miranda), Дуглас Роу (Grandpa)
Описание:
В 2029 году бывший военный, а ныне безработный киборг, принимает заказ защитить женщину от ее бывшего, который пытается ее убить. В этом ему помогает искусственный интеллект по имени Клайд, имплантированный ему в голову, который является ему партнером и другом.
Рейтинг:

Качество: WEB-DLRip
Формат: AVI
Видео: XviD, 720x304 (2.35:1), 2024 kbps, 23,976 fps, 0,386 bpp
Аудио: AC3 / 2.0 / 48 kHz / 384 kbps /

General
Complete name Black.Road.2016.P.WEB-DLRip.14OOMB.avi
Format : AVI
Format/Info : Audio Video Interleave
File size : 1.37 GiB
Duration : 1 h 20 min
Overall bit rate : 2 418 kb/s
Writing application : VirtualDubMod 1.5.10.2 (build 2540/release)
Writing library : VirtualDubMod build 2540/release

Video
ID : 0
Format : MPEG-4 Visual
Format profile : Advanced Simple@L5
Format settings, BVOP : 2
Format settings, QPel : No
Format settings, GMC : No warppoints
Format settings, Matrix : Custom
Codec ID : XVID
Codec ID/Hint : XviD
Duration : 1 h 20 min
Bit rate : 2 025 kb/s
Width : 720 pixels
Height : 304 pixels
Display aspect ratio : 2.35:1
Frame rate : 23.976 (24000/1001) FPS
Color space : YUV
Chroma subsampling : 4:2:0
Bit depth : 8 bits
Scan type : Progressive
Compression mode : Lossy
Bits/(Pixel*Frame) : 0.386
Stream size : 1.14 GiB (84%)
Writing library : XviD 1.2.1 (UTC 2008-12-04)

Audio
ID : 1
Format : AC-3
Format/Info : Audio Coding 3
Mode extension : CM (complete main)
Format settings, Endianness : Big
Codec ID : 2000
Duration : 1 h 20 min
Bit rate mode : Constant
Bit rate : 384 kb/s
Channel(s) : 2 channels
Channel positions : Front: L R
Sampling rate : 48.0 kHz
Frame rate : 31.250 FPS (1536 spf)
Compression mode : Lossy
Stream size : 222 MiB (16%)
Alignment : Split accross interleaves
Interleave, duration : 42 ms (1.00 video frame)
Interleave, preload duration : 500 ms
Скриншоты:
pb.wtf



Скачать Темная дорога через торрент http://i3.imageban.ru/out/2016/09/13/d541abaeb0632c6ec89cd217dc36d7ac.jpg Скачать, смотреть онлайн Темная дорога бесплантно в хорошем качестве Описание: В 2029 году бывший военный, а ныне безработный киборг, принимает заказ защитить женщину от ее бывшего, который пытается ее убить. ... 9.7 10 20
Торрент: Зарегистрирован [2016-09-13 10:55] · скачан: 502 раз
Статус: T временная
Размер: 1.37 GB
Как cкачать? Как скачать Темная дорога через торрент | UTorrent

28-11-2019 20:33  

Отключить всю рекламу на сайте

    Дорогой пользователь! Огромная просьба, поблагодарите релизера, оцените раздачу и оставьте свои комментарий, если Вы скачали Темная дорога через торрент бесплатно!
    Комментировать посты могут только пользователи прошедшие не сложную регистрацию
    Показать сообщения:    

    Темная дорога через торрент
    Скачать бесплатно Темная дорога
    Темная дорога скачать торрент
    Темная дорога смотреть онлайн
    Cкачать фильм Темная дорога бесплатно
    Темная дорога скачать торрент в хорошем качестве
    Темная дорога смотреть онлайн бесплатно в хорошем качестве


    Вы не можете начинать темы
    Вы не можете отвечать на сообщения
    Вы не можете редактировать свои сообщения
    Вы не можете удалять свои сообщения
    Вы не можете голосовать в опросах
    Вы не можете прикреплять файлы к сообщениям
    Вы можете скачивать файлы