Ссылка на приватное зеркало нашего сайта всего за 1$. Внимание количество ограничено!!!

2 сезон

iTunes

1 сезон

1

2 сезон

2 сезон

iTunes

1 сезон

RePack

30

Новинка

ВАЖНО

ИГРА 18+

pack

RePack

MK11
pack

Забери бонус

RePack

jed

!!Акция!!

Alien_Rage

RePack

fifa19

RePack

Assassins Creed: Odyssey

RePack

NEED FOR SPEED™ PAYBACK

4 сезон

9 сезон

Бесстыжие 9 сезон

Все сериалы

все сериалы на PB.wtf

RePack

FAR CRY 5
  

Музыкальная шкатулка / Music Box (Коста-Гаврас) [1989 г., триллер, драма, BDRip 720p] MVO pb.wtf

Музыкальная шкатулка через торрент pb.wtf

Размер: 3.77 GB | Добавлен: 4 года 2 мес. назад | Торрент скачан:3 раза
Скачать  

15-09-2016 17:39 Музыкальная шкатулка Скачать торрент  

Музыкальная шкатулка / Music Box
Год выпуска: 1989
Страна: США
Жанр: триллер, драма
Продолжительность: 02:00:25
Перевод: Профессиональный (многоголосый)

Режиссер: Коста-Гаврас
Продюссер: Ирвин Уинклер, Джо Эстерхаз, Хэл В. Полейр
Сценарий: Джо Эстерхаз

Бюджет: $6 263 883
Премьера в мире: 22 декабря 1989



В ролях: Джессика Лэнг, Армин Мюллер-Шталь, Фредерик Форрест, Дональд Моффет, Лукас Хаас, Шерил Линн Брюс, Мари Тёрёчик, Ж.С. Блок, Сол Фридер, Майкл Рукер, Эльжбета Чижевска, Альберт Холл, Нед Шмидтке

Описание: Венгерский иммигрант Майк Лазло арестован по обвинению в пособничестве нацистам во время второй мировой войны. Лазло угрожают депортацией, и на его защиту встает его дочь, адвокат Энн Тэлбот, уверенная, что отец стал жертвой происков венгерской коммунистической машины. Она не верит в виновность отца до тех пор, пока не собирает внушительные доказательства его коллаборационистской деятельности. Кто теперь Лазло — жертва или палач?

Качество: BDRip 720p
Формат: MKV
Видео кодек: x264
Аудио кодек: AC3
Видео: MPEG-4 AVC, 3941 Кбит/с, 1280x544, 25 кадр/с
Аудио#1: AC3, 2 ch, 224 Кбит/с, 48 kHz | Русский
Аудио#2: AC3, 2 ch, 320 Кбит/с, 48 kHz | Английский
Релиз от: Koenig
Общее
Уникальный идентификатор : 178025271635246648746638367136991217022 (0x85EE6B8EF34A77398E558F68A10D057E)
Полное имя : Music,Box.1989.BDRip.720p.mkv
Формат : Matroska
Версия формата : Version 4 / Version 2
Размер файла : 3,77 Гбайт
Продолжительность : 2 ч. 0 м.
Общий поток : 4485 Кбит/сек
Режиссёр : Costa-Gavras
Дата кодирования : UTC 2016-09-15 16:00:58
Программа кодирования : mkvmerge v9.2.0 ('Photograph') 32bit
Библиотека кодирования : libebml v1.3.3 + libmatroska v1.4.4
Обложка : Yes
Attachments : cover.jpg
Release : Koenig

Видео
Идентификатор : 1
Формат : AVC
Формат/Информация : Advanced Video Codec
Профиль формата : High@L4.1
Параметр CABAC формата : Да
Параметр ReFrames формата : 9 кадров
Идентификатор кодека : V_MPEG4/ISO/AVC
Продолжительность : 2 ч. 0 м.
Битрейт : 3941 Кбит/сек
Ширина : 1280 пикселей
Высота : 544 пикселя
Соотношение сторон : 2,35:1
Режим частоты кадров : Постоянный
Частота кадров : 25,000 кадров/сек
Цветовое пространство : YUV
Субдискретизация насыщенности : 4:2:0
Битовая глубина : 8 бит
Тип развёртки : Прогрессивная
Бит/(Пиксели*Кадры) : 0.226
Размер потока : 3,31 Гбайт (88%)
Библиотека кодирования : x264 core 148 r2692 64f4e24
Настройки программы : cabac=1 / ref=9 / deblock=1:-3:-3 / analyse=0x3:0x133 / me=umh / subme=10 / psy=1 / psy_rd=1.10:0.00 / mixed_ref=1 / me_range=32 / chroma_me=1 / trellis=2 / 8x8dct=1 / cqm=0 / deadzone=21,11 / fast_pskip=0 / chroma_qp_offset=-2 / threads=3 / lookahead_threads=1 / sliced_threads=0 / nr=0 / decimate=1 / interlaced=0 / bluray_compat=0 / constrained_intra=0 / bframes=12 / b_pyramid=2 / b_adapt=2 / b_bias=0 / direct=3 / weightb=1 / open_gop=0 / weightp=2 / keyint=250 / keyint_min=25 / scenecut=40 / intra_refresh=0 / rc_lookahead=40 / rc=2pass / mbtree=1 / bitrate=3941 / ratetol=1.0 / qcomp=0.60 / qpmin=10 / qpmax=51 / qpstep=4 / cplxblur=20.0 / qblur=0.5 / vbv_maxrate=50000 / vbv_bufsize=62500 / nal_hrd=none / filler=0 / ip_ratio=1.40 / aq=1:1.00
Default : Да
Forced : Нет

Аудио #1
Идентификатор : 2
Формат : AC-3
Формат/Информация : Audio Coding 3
Расширение режима : CM (complete main)
Параметр Endianness формата : Big
Идентификатор кодека : A_AC3
Продолжительность : 2 ч. 0 м.
Вид битрейта : Постоянный
Битрейт : 224 Кбит/сек
Каналы : 2 канала
Расположение каналов : Front: L R
Частота : 48,0 КГц
Частота кадров : 31,250 кадров/сек (1536 spf)
Метод сжатия : С потерями
Размер потока : 193 Мбайт (5%)
Заголовок : MVO
Язык : Russian
Default : Да
Forced : Нет

Аудио #2
Идентификатор : 3
Формат : AC-3
Формат/Информация : Audio Coding 3
Профиль формата : Dolby Digital
Расширение режима : CM (complete main)
Параметр Endianness формата : Big
Идентификатор кодека : A_AC3
Продолжительность : 2 ч. 0 м.
Вид битрейта : Постоянный
Битрейт : 320 Кбит/сек
Каналы : 2 канала
Расположение каналов : Front: L R
Частота : 48,0 КГц
Частота кадров : 31,250 кадров/сек (1536 spf)
Метод сжатия : С потерями
Размер потока : 276 Мбайт (7%)
Заголовок : Original
Язык : English
Default : Нет
Forced : Нет

Меню
00:00:00.000 : en:
00:11:53.000 : en:
00:22:49.520 : en:
00:38:09.399 : en:
00:47:49.520 : en:
01:02:22.800 : en:
01:15:52.520 : en:
01:28:11.400 : en:
01:39:31.320 : en:
01:48:10.080 : en:
01:56:59.360 : en:
02:00:25.320 : en:

Музыкальная шкатулка скачать торрент

pb.wtf



Скачать Музыкальная шкатулка через торрент http://pic1.kartinco.top/images/10/1j1eq.jpg Скачать фильм Музыкальная шкатулка через торрент бесплантно в хорошем качестве Описание: Венгерский иммигрант Майк Лазло арестован по обвинению в пособничестве нацистам во время второй мировой войны. Лазло угрожают ... 10 10 1
Info! Золотая раздача, скачанное не засчитывается.
Торрент: Зарегистрирован [2016-09-15 17:39] · скачан: 3 раз
Статус: √ проверено
Размер: 3.77 GB
Как cкачать? Как скачать Музыкальная шкатулка через торрент | qTorrent

28-11-2019 20:33  

Отключить всю рекламу на сайте

    Дорогой пользователь! Огромная просьба, поблагодарите релизера, оцените раздачу и оставьте свои комментарий, если Вы скачали Музыкальная шкатулка через торрент бесплатно! Внесите свою лепту в развитие PiratBit!
    Комментировать посты могут только пользователи прошедшие не сложную регистрацию
    Показать сообщения:    

    Музыкальная шкатулка через торрент
    Скачать бесплатно Музыкальная шкатулка
    Музыкальная шкатулка скачать торрент
    Музыкальная шкатулка смотреть онлайн
    Cкачать фильм Музыкальная шкатулка бесплатно
    Музыкальная шкатулка скачать торрент в хорошем качестве
    Музыкальная шкатулка смотреть онлайн бесплатно в хорошем качестве


    Вы не можете начинать темы
    Вы не можете отвечать на сообщения
    Вы не можете редактировать свои сообщения
    Вы не можете удалять свои сообщения
    Вы не можете голосовать в опросах
    Вы не можете прикреплять файлы к сообщениям
    Вы можете скачивать файлы