Ссылка на приватное зеркало всего за 1$. Внимание количество ограничено!!!

OK

1+1

iTunes

мы

OK

1

WEB-DLRip

Джокер

Пифагор

Ведьмак / The Witcher сериал

Лицензия

ПШазам

ОК

Оно 2

iTunes

30
pack

Вам бонус

ВАЖНО

!!Акция!!

Alien_RageХит недели

RePack

Resident Evil 21

ИГРА 18+

pack

RePack

jed

RePack

fifa19

RePack

Assassins Creed: Odyssey

RePack

NEED FOR SPEED™ PAYBACK

4 сезон

9 сезон

Бесстыжие 9 сезон

Все сериалы

все сериалы на PB.wtf

RePack

FAR CRY 5
  

Солнечный удар (Никита Михалков ) [2014, драма, WEB-DLRip] Лицензия pb.wtf

Солнечный удар через торрент pb.wtf

Размер: 2.05 GB | Добавлен: 5 лет 1 мес. назад | Торрент скачан:1074 раза
Скачать  

01-12-2014 16:58 Солнечный удар Скачать торрент  


Солнечный удар
«Как всё это случилось?»

Год выпуска:2014
Страна: Россия
Жанр:драма
Продолжительность:03:00:12
Перевод:Не требуется
Режиссер:Никита Михалков

  • В ролях:

    Мартиньш Калита, Виктория Соловьева, Сергей Серов (батюшка), Алёна Спивак-Бычкова (дама на корабле), Наталья Суркова, Денис Васильев (студент), Ксения Попович (Оля), Олег Граф (офицер), Вадим Головко, Андрей Попович (Петя), Сергей Анашкин (белогвардеец), Родион Толоконников
  • Описание:
    Всего одна ночь с незнакомкой становится для главного героя настоящим наваждением. Этот «солнечный удар» не отпускает его даже в самые «окаянные дни» гибели Российской Империи...


    Качество: WEB-DLRip
    Формат:AVI
    Видео кодек: XviD
    Аудио кодек:AC3
    Видео: XviD, 720x304 (2.35:1), 1235 kbps, 24 fps, 0,235 bpp
    Аудио: AC3 / 5.1 / 48 kHz / 384 kbps / 16 bit


    Код:

    General
    Complete name                            : D:\Торенты\S0lnechnyj.Udar.2014.O.WEB-DLRip.2100MB.avi
    Format                                   : AVI
    Format/Info                              : Audio Video Interleave
    Format profile                           : OpenDML
    File size                                : 2.05 GiB
    Duration                                 : 3h 0mn
    Overall bit rate                         : 1 632 Kbps
    Writing application                      : VirtualDubMod 1.5.10.3 | www.virtualdub-fr.org || (build 2550/release)
    Writing library                          : VirtualDubMod build 2550/release

    Video
    ID                                       : 0
    Format                                   : MPEG-4 Visual
    Format profile                           : Advanced Simple@L5
    Format settings, BVOP                    : 2
    Format settings, QPel                    : No
    Format settings, GMC                     : No warppoints
    Format settings, Matrix                  : Default (MPEG)
    Codec ID                                 : XVID
    Codec ID/Hint                            : XviD
    Duration                                 : 3h 0mn
    Bit rate                                 : 1 236 Kbps
    Width                                    : 720 pixels
    Height                                   : 304 pixels
    Display aspect ratio                     : 2.35:1
    Frame rate                               : 24.000 fps
    Color space                              : YUV
    Chroma subsampling                       : 4:2:0
    Bit depth                                : 8 bits
    Scan type                                : Progressive
    Compression mode                         : Lossy
    Bits/(Pixel*Frame)                       : 0.235
    Stream size                              : 1.56 GiB (76%)
    Writing library                          : XviD 1.2.1 (UTC 2008-12-04)

    Audio
    ID                                       : 1
    Format                                   : AC-3
    Format/Info                              : Audio Coding 3
    Mode extension                           : CM (complete main)
    Codec ID                                 : 2000
    Duration                                 : 3h 0mn
    Bit rate mode                            : Constant
    Bit rate                                 : 384 Kbps
    Channel(s)                               : 6 channels
    Channel positions                        : Front: L C R, Side: L R, LFE
    Sampling rate                            : 48.0 KHz
    Bit depth                                : 16 bits
    Compression mode                         : Lossy
    Stream size                              : 495 MiB (24%)
    Alignment                                : Split accross interleaves
    Interleave, duration                     : 42 ms (1.00 video frame)
    Interleave, preload duration             : 500 ms

    Скриншоты:

    Каталог Новинок (Фильмы-трейлеры, Игры, Сериалы, Мультфильмы)

    © Оформление by Ворон
    pb.wtf



  • Скачать Солнечный удар через торрент http://pic.kartinco.top/images/6/ordi9.jpg Скачать фильм Солнечный удар через торрент бесплантно в хорошем качестве Описание:Всего одна ночь с незнакомкой становится для главного героя настоящим наваждением. Этот «солнечный удар» не отпускает его даже в ... 9.1 10 34
    Info! Золотая раздача, скачанное не засчитывается.
    Торрент: Зарегистрирован [2014-12-01 17:00] · скачан: 1 074 раз
    Статус: √ проверено
    Размер: 2.05 GB
    Как cкачать? Как скачать Солнечный удар через торрент | qTorrent

    % Раздел Тема Автор DL S | L
    Фильмы 2006-2008 [ 1.37 GB ] Солнечный удар / Solar Attack [2006 DVDRip многоголосый ] axeplay Скачать
    1 | 0

    28-11-2019 20:33  

    Отключить всю рекламу на сайте

    19-02-2015 21:37 Солнечный удар Скачать торрент  

    долгая тягомотина чушьpb.wtf



    18-08-2015 03:11 Солнечный удар Скачать торрент  

    Отличный фильм!!!pb.wtf



    23-09-2016 08:33 Солнечный удар Скачать торрент  

    Благодарю.pb.wtf



      Дорогой пользователь! Огромная просьба, поблагодарите релизера, оцените раздачу и оставьте свои комментарий, если Вы скачали Солнечный удар через торрент бесплатно! Внесите свою лепту в развитие PiratBit!
      Комментировать посты могут только пользователи прошедшие не сложную регистрацию
      Показать сообщения:    

      Солнечный удар через торрент
      Скачать бесплатно Солнечный удар
      Солнечный удар скачать торрент
      Солнечный удар смотреть онлайн
      Cкачать фильм Солнечный удар бесплатно
      Солнечный удар скачать торрент в хорошем качестве
      Солнечный удар смотреть онлайн бесплатно в хорошем качестве


      Вы не можете начинать темы
      Вы не можете отвечать на сообщения
      Вы не можете редактировать свои сообщения
      Вы не можете удалять свои сообщения
      Вы не можете голосовать в опросах
      Вы не можете прикреплять файлы к сообщениям
      Вы можете скачивать файлы