Ссылка на приватное зеркало всего за 1$. Внимание количество ограничено!!!

OK

1+1

iTunes

мы

OK

1

WEB-DLRip

Джокер

Пифагор

Ведьмак / The Witcher сериал

iTunes

ПШазам

ОК

Оно 2

iTunes

30
pack

Вам бонус

ВАЖНО

!!Акция!!

Alien_RageХит недели

RePack

Resident Evil 21

ИГРА 18+

pack

RePack

jed

RePack

fifa19

RePack

Assassins Creed: Odyssey

RePack

NEED FOR SPEED™ PAYBACK

4 сезон

9 сезон

Бесстыжие 9 сезон

Все сериалы

все сериалы на PB.wtf

RePack

FAR CRY 5
  

Кровавая ловушка / Blood Trap (Альберто Скьямма) [2015 г., ужасы, боевик, HDRip] VO [Xixidok] pb.wtf

Кровавая ловушка через торрент pb.wtf

Размер: 741 MB | Добавлен: 3 года 4 мес. назад | Торрент скачан:86 раз
Скачать  

24-09-2016 09:35 Кровавая ловушка Скачать торрент  

Кровавая ловушка / Blood Trap
Год выпуска: 2015
Страна: США
Жанр: ужасы, боевик
Продолжительность: 01:31:06
Перевод: Любительский одноголосый [Xixidok]
Субтитры: отсутствуют

Режиссер: Альберто Скьямма

rating


В ролях:

Костас Мэндилор, Джанни Капальди, Винни Джонс, Drew Kenney,Elena Mirela, Grazia Leone, Денни Мендез, Коке Малья

Описание:

Охранник тюрьмы, уволенный на пенсию, собирает банду из бывших зеков, которых охранял и пошел грабить дом,где жил богатый мужик. План был прост: похитить его дочку и потребовать выкуп. Но дом отказался выпускать их с добычей и грабители сами оказались в роли заложников.

Качество: HDRip
Формат: AVI
Видео кодек: DivX
Аудио кодек: MP3

Видео: 640x272 (2.35:1), 23.976 fps, XviD MPEG-4 ~935 kbps avg, 0.22 bit/pixel
Аудио#1: 44.100 kHz, MPEG Layer 3, 2 ch, ~192.00 kbps avg
Общее
Полное имя : D:\Blood.Trap.2015.Xixidok.avi\Blood.Trap.2015.Xixidok.avi
Формат : AVI
Формат/Информация : Audio Video Interleave
Размер файла : 741 Мбайт
Продолжительность : 1 ч. 31 м.
Общий поток : 1137 Кбит/сек
Программа кодирования : VirtualDubMod 1.5.10.3 (build 2550/release)
Библиотека кодирования : VirtualDubMod build 2550/release

Видео
Идентификатор : 0
Формат : MPEG-4 Visual
Профиль формата : Advanced Simple@L5
Параметр BVOP формата : 2
Параметр QPel формата : Нет
Параметр GMC формата : Без точки перехода
Параметр матрицы формата : Default (H.263)
Режим смешивания : Сжатый битовый поток
Идентификатор кодека : XVID
Идентификатор кодека/Подсказка : XviD
Продолжительность : 1 ч. 31 м.
Битрейт : 935 Кбит/сек
Ширина : 640 пикселей
Высота : 272 пикселя
Соотношение сторон : 2,35:1
Частота кадров : 23,976 (24000/1001) кадра/сек
Цветовое пространство : YUV
Субдискретизация насыщенности : 4:2:0
Битовая глубина : 8 бит
Тип развёртки : Прогрессивная
Метод сжатия : С потерями
Бит/(Пиксели*Кадры) : 0.224
Размер потока : 609 Мбайт (82%)
Библиотека кодирования : XviD 64

Аудио
Идентификатор : 1
Формат : MPEG Audio
Версия формата : Version 1
Профиль формата : Layer 3
Идентификатор кодека : 55
Идентификатор кодека/Подсказка : MP3
Продолжительность : 1 ч. 31 м.
Вид битрейта : Постоянный
Битрейт : 192 Кбит/сек
Каналы : 2 канала
Частота : 44,1 КГц
Метод сжатия : С потерями
Размер потока : 125 Мбайт (17%)
Выравнивание : Разделение по промежуткам
Продолжительность промежутка : 42 мс. (1,00 видеокадр)
Время предзагрузки промежутка : 500 мс.

Общее
Полное имя : D:\Blood.Trap.2015.Xixidok.avi\Blood.Trap.2015.Xixidok.avi.torrent
Размер файла : 15,0 Кбайт
скриншот  скриншот  скриншот  скриншот  

скриншот  скриншот  скриншот  скриншот  

скриншот  
pb.wtf



Скачать Кровавая ловушка через торрент http://pic1.kartinco.top/images/10/4fula.jpg Скачать фильм Кровавая ловушка через торрент бесплантно в хорошем качестве Описание: Охранник тюрьмы, уволенный на пенсию, собирает банду из бывших зеков, которых охранял и пошел грабить дом,где жил богатый мужик. ... 7.7 10 6
Торрент: Зарегистрирован [2016-09-24 09:35] · скачан: 86 раз
Статус: T временная
Размер: 741 MB
Как cкачать? Как скачать Кровавая ловушка через торрент | qTorrent

% Раздел Тема Автор DL S | L
T Релизы по Парсеру [Игры, Сериалы и Фильмы и другое...] [ 1.6 GB ] Кровавая ловушка / Blood Trap [2016 WEB-DL-1080p] [VO] smaster Скачать
1 | 0

28-11-2019 20:33  

Отключить всю рекламу на сайте

25-09-2016 04:16 Кровавая ловушка Скачать торрент  

Всем приятного просмотра) pb.wtf



    Дорогой пользователь! Огромная просьба, поблагодарите релизера, оцените раздачу и оставьте свои комментарий, если Вы скачали Кровавая ловушка через торрент бесплатно! Внесите свою лепту в развитие PiratBit!
    Комментировать посты могут только пользователи прошедшие не сложную регистрацию
    Показать сообщения:    

    Кровавая ловушка через торрент
    Скачать бесплатно Кровавая ловушка
    Кровавая ловушка скачать торрент
    Кровавая ловушка смотреть онлайн
    Cкачать фильм Кровавая ловушка бесплатно
    Кровавая ловушка скачать торрент в хорошем качестве
    Кровавая ловушка смотреть онлайн бесплатно в хорошем качестве


    Вы не можете начинать темы
    Вы не можете отвечать на сообщения
    Вы не можете редактировать свои сообщения
    Вы не можете удалять свои сообщения
    Вы не можете голосовать в опросах
    Вы не можете прикреплять файлы к сообщениям
    Вы можете скачивать файлы