Ссылка на приватное зеркало нашего сайта всего за 1$. Внимание количество ограничено!!!

2 сезон

iTunes

1 сезон

1

2 сезон

2 сезон

iTunes

1 сезон

RePack

30

Ultimate

ВАЖНО

ИГРА 18+

pack

RePack

MK11
pack

Забери бонус

RePack

jed

!!Акция!!

Alien_Rage

RePack

fifa19

RePack

Assassins Creed: Odyssey

RePack

NEED FOR SPEED™ PAYBACK

4 сезон

9 сезон

Бесстыжие 9 сезон

Все сериалы

все сериалы на PB.wtf

RePack

FAR CRY 5
  

Невеста из Москвы / 4 серии из 4 (Наталья Хлопецкая) [2016 г., мелодрама, SATRip] pb.wtf

Невеста из Москвы через торрент pb.wtf

Размер: 2.15 GB | Добавлен: 4 года 1 мес. назад | Торрент скачан:121 раз
Скачать  

17-10-2016 06:48 Невеста из Москвы Скачать торрент  

Невеста из Москвы
Год выпуска: 2016
Страна: Россия
Жанр: мелодрама
Продолжительность: 4 х ~ 00:44:00
Перевод: Не требуется
Субтитры: отсутствуют

Режиссер: Наталья Хлопецкая



В ролях:

Александр Яцко, Евгения Дмитриева, Вера Строкова, Дмитрий Чеботарев, Владимир Демидов

Описание:

Владелец крупной британской корпорации Георгий Фаворский едет в Москву, чтобы сделать предложение бывшей возлюбленной, с которой расстался много лет назад. Дело не из простых, ведь гордая Ангелина Забелина не желает видеть бросившего её когда-то жениха, поэтому мистер Фаворский призывает на помощь молодого менеджера Алекса, отъявленного Дон Жуана и непревзойдённого мастера пикапа. Если тот поможет боссу завладеть сердцем неприступной возлюбленной, он сделает Алекса своим преемником. Парень не сомневается в успехе, однако дело оказывается не таким простым, как он представлял. "Старая бестия" умна и на редкость строптива, к тому же дело осложняется появлением воинственно настроенной дочери Забелиной, Алёны...

Качество: SATRip
Формат: AVI
Видео кодек: XviD
Аудио кодек: MP3

Видео: 720x400 (2.43:1), 25 fps, XviD MPEG-4 ~1800 kbps avg, 0.250 bit/pixel
Аудио#1: 48 kHz, MPEG Layer 3, 2 ch, ~128.00 kbps avg
Общее
Полное имя : C:\Users\Downloads\Nevesta.iz.Moskvy.SATRip\Nevesta.iz.Moskvy.01.SATRip.avi
Формат : AVI
Формат/Информация : Audio Video Interleave
Размер файла : 631 Мбайт
Продолжительность : 45 м.
Общий поток : 1938 Кбит/сек
Программа кодирования : VirtualDubMod 1.5.10.3 | www.virtualdub-fr.org || (build 2550/release)
Библиотека кодирования : VirtualDubMod build 2550/release

Видео
Идентификатор : 0
Формат : MPEG-4 Visual
Профиль формата : Advanced Simple@L5
Параметр BVOP формата : 2
Параметр QPel формата : Нет
Параметр GMC формата : Без точки перехода
Параметр матрицы формата : Default (H.263)
Идентификатор кодека : XVID
Идентификатор кодека/Подсказка : XviD
Продолжительность : 45 м.
Битрейт : 1800 Кбит/сек
Ширина : 720 пикселей
Высота : 400 пикселей
Соотношение сторон : 16:9
Частота кадров : 25,000 кадров/сек
Цветовое пространство : YUV
Субдискретизация насыщенности : 4:2:0
Битовая глубина : 8 бит
Тип развёртки : Прогрессивная
Метод сжатия : С потерями
Бит/(Пиксели*Кадры) : 0.250
Размер потока : 586 Мбайт (93%)
Библиотека кодирования : XviD 1.2.1 (UTC 2008-12-04)

Аудио
Идентификатор : 1
Формат : MPEG Audio
Версия формата : Version 1
Профиль формата : Layer 3
Режим : Joint stereo
Расширение режима : MS Stereo
Идентификатор кодека : 55
Идентификатор кодека/Подсказка : MP3
Продолжительность : 45 м.
Вид битрейта : Постоянный
Битрейт : 128 Кбит/сек
Каналы : 2 канала
Частота : 48,0 КГц
Метод сжатия : С потерями
Размер потока : 41,7 Мбайт (7%)
Выравнивание : Соединение по промежуткам
Продолжительность промежутка : 40 мс. (1,00 видеокадр)
Время предзагрузки промежутка : 504 мс.
Библиотека кодирования : LAME3.99r
Настройки программы : -m j -V 4 -q 9 -lowpass 17 -b 128
скриншот  скриншот  скриншот  скриншот  
pb.wtf



Скачать Невеста из Москвы через торрент http://pic1.kartinco.top/images/10/sbraj.jpg Скачать фильм Невеста из Москвы через торрент бесплантно в хорошем качестве Описание: Владелец крупной британской корпорации Георгий Фаворский едет в Москву, чтобы сделать предложение бывшей возлюбленной, с которой ... 8.7 10 10
Торрент: Зарегистрирован [2016-10-17 06:48] · скачан: 121 раз
Статус: √ проверено
Размер: 2.15 GB
Как cкачать? Как скачать Невеста из Москвы через торрент | qTorrent

28-11-2019 20:33  

Отключить всю рекламу на сайте

    Дорогой пользователь! Огромная просьба, поблагодарите релизера, оцените раздачу и оставьте свои комментарий, если Вы скачали Невеста из Москвы через торрент бесплатно! Внесите свою лепту в развитие PiratBit!
    Комментировать посты могут только пользователи прошедшие не сложную регистрацию
    Показать сообщения:    

    Невеста из Москвы через торрент
    Скачать бесплатно Невеста из Москвы
    Невеста из Москвы скачать торрент
    Невеста из Москвы смотреть онлайн
    Cкачать фильм Невеста из Москвы бесплатно
    Невеста из Москвы скачать торрент в хорошем качестве
    Невеста из Москвы смотреть онлайн бесплатно в хорошем качестве


    Вы не можете начинать темы
    Вы не можете отвечать на сообщения
    Вы не можете редактировать свои сообщения
    Вы не можете удалять свои сообщения
    Вы не можете голосовать в опросах
    Вы не можете прикреплять файлы к сообщениям
    Вы можете скачивать файлы