новый адрес пиратбит piratbit
Мега распродажа FORZA HORIZON 4 ULTIMATE+ВСЕ DLC+ОНЛАЙН всего за 499р. 349 руб. (супер цена). Внимание количество ограничено!!!

iTunes

1+1

iTunes

мы

iTunes

1

iTunes

Чернобыль

iTunes

Ральф против интернета

Лицензия

ПШазам

Лицензия

Игра престолов

Лицензия

30
pack

ВАЖНО

!!Акция!!

Alien_RageХит недели

RePack

Resident Evil 21

ИГРА 18+

pack

RePack

Metro:Exodus

!!Акция!!

Alien_Rage

RePack

fifa19

RePack

Assassins Creed: Odyssey

RePack

NEED FOR SPEED™ PAYBACK

3 сезон

9 сезон

Бесстыжие 9 сезон

Все сериалы

все сериалы на PB.wtf

RePack

FAR CRY 5
Ребята, катастрофически не хватает 1900р. для оплаты серверов за Октябрь (всвязи с блокировками трафик упал в 3 раза), 1-2р., выручайте.
  

Ходячие мертвецы 7 сезон 2 серия HDTV 720p / FOX pb.wtf

Ходячие мертвецы 7 сезон 2 серия HDTV 720p через торрент pb.wtf

Размер: 5.46 GB | Добавлен: 3 года назад | Торрент скачан:90 раз
Скачать  

24-10-2016 06:26 Ходячие мертвецы 7 сезон 2 серия HDTV 720p Скачать торрент  


Ходячие мертвецы / The Walking Dead
««Fight the dead. Fear the living»»

ИНФОРМАЦИЯ:
Год выпуска:20106
Страна: США
Жанр: ужасы, фантастика, триллер, драма
Режиссер: Фрэнк Дарабонт, Эрнест Р. Дикерсон, Гай Ферленд
Продолжительность: 00:46:17
Перевод: Профессиональный [многоголосый][FOX, Jaskier]

В Ролях:


Эндрю Линкольн (Rick Grimes), Чендлер Риггз (Carl Grimes), Мелисса Сюзанн МакБрайд (Carol Peletier), Норман Ридус (Daryl Dixon), Стивен Ян (Glenn Rhee), Лорен Кохэн (Maggie Greene), Данай Джекесай Гурира (Michonne), Сонекуа Мартин-Грин (Sasha Williams), Эмили Кинни (Beth Greene), Аланна Мастерсон (Tara Chambler), Джош МакДермитт (Dr. Eugene Porter), Кристиан Серратос (Rosita Espinosa)

ОПИСАНИЕ:
Сериал рассказывает историю жизни семьи шерифа после того, как «зомби» - эпидемия апокалиптических масштабов захлестнула земной шар. Шериф Рик Граймс путешествует со своей семьей и небольшой группой выживших в поисках безопасного места для жизни. Но постоянный страх смерти каждый день приносит тяжелые потери, заставляя героев почувствовать глубины человеческой жестокости. Рик пытается спасти свою семью, и открывает для себя, что всепоглощающий страх тех, кто выжил, может быть опаснее бессмысленных мертвецов, бродящих по земле.

  • Мировая премьера:31 октября 2010

    ТЕХ.ДАННЫЕ:
    Качество: HDTVRip 720p
    Формат: MKV
    Видео: AVC, 1280x718 (16:9), 8000 kbps, 23,976 fps, 0,336 bpp
    Аудио №1: русский / AC3 / 2.0 / 48 kHz / 192 kbps / ||
    Аудио №2: русский / AC3 / 6 ch / 48 kHz / 384 kbps / ||
    Аудио №3: AC3 / 5.1 / 48 kHz / 384 kbps / английский


    Общее
    Уникальный идентификатор : 192708645955527053612461271446824347621 (0x90FA55CE473D684AB7F546A2462EE7E5)
    Полное имя : W:\Торенты\TWD (Season 07) 720\The.Walking.Dead.S07E02.2xRus.Eng.720p.WEBRip.mkv
    Формат : Matroska
    Версия формата : Version 2
    Размер файла : 2,48 Гбайт
    Продолжительность : 46 м.
    Общий поток : 7684 Кбит/сек
    Дата кодирования : UTC 2016-11-01 01:44:03
    Программа кодирования : mkvmerge v7.8.0 ('River Man') 32bit built on Apr 3 2015 12:11:22
    Библиотека кодирования : libebml v1.3.1 + libmatroska v1.4.2

    Видео
    Идентификатор : 1
    Формат : AVC
    Формат/Информация : Advanced Video Codec
    Профиль формата : High@L4.1
    Параметр CABAC формата : Да
    Параметр ReFrames формата : 9 кадров
    Идентификатор кодека : V_MPEG4/ISO/AVC
    Продолжительность : 46 м.
    Битрейт : 6571 Кбит/сек
    Ширина : 1280 пикселей
    Высота : 720 пикселей
    Соотношение сторон : 16:9
    Режим частоты кадров : Постоянный
    Частота кадров : 23,976 кадра/сек
    Цветовое пространство : YUV
    Субдискретизация насыщенности : 4:2:0
    Битовая глубина : 8 бит
    Тип развёртки : Прогрессивная
    Бит/(Пиксели*Кадры) : 0.297
    Размер потока : 2,12 Гбайт (86%)
    Библиотека кодирования : x264 core 148 r2705kMod 3f5ed56
    Настройки программы : cabac=1 / ref=9 / deblock=1:-3:-3 / analyse=0x3:0x113 / me=umh / subme=10 / psy=1 / fade_compensate=0.00 / psy_rd=1.00:0.00 / mixed_ref=1 / me_range=32 / chroma_me=1 / trellis=2 / 8x8dct=1 / cqm=0 / deadzone=21,11 / fast_pskip=0 / chroma_qp_offset=-2 / threads=12 / lookahead_threads=2 / sliced_threads=0 / nr=0 / decimate=1 / interlaced=0 / bluray_compat=0 / constrained_intra=0 / fgo=0 / bframes=9 / b_pyramid=2 / b_adapt=2 / b_bias=0 / direct=3 / weightb=1 / open_gop=0 / weightp=2 / keyint=250 / keyint_min=23 / scenecut=40 / intra_refresh=0 / rc_lookahead=40 / rc=crf / mbtree=0 / crf=20.0000 / qcomp=0.60 / qpmin=0 / qpmax=69 / qpstep=4 / vbv_maxrate=50000 / vbv_bufsize=65000 / crf_max=0.0 / nal_hrd=none / filler=0 / ip_ratio=1.40 / pb_ratio=1.30 / aq=3:0.80
    Язык : English
    Default : Да
    Forced : Нет

    Аудио #1
    Идентификатор : 2
    Формат : AC-3
    Формат/Информация : Audio Coding 3
    Расширение режима : CM (complete main)
    Параметр Endianness формата : Big
    Идентификатор кодека : A_AC3
    Продолжительность : 46 м.
    Вид битрейта : Постоянный
    Битрейт : 192 Кбит/сек
    Каналы : 2 канала
    Расположение каналов : Front: L R
    Частота : 48,0 КГц
    Битовая глубина : 16 бит
    Метод сжатия : С потерями
    Размер потока : 63,4 Мбайт (2%)
    Заголовок : FOX
    Язык : Russian
    Default : Да
    Forced : Нет

    Аудио #2
    Идентификатор : 3
    Формат : AC-3
    Формат/Информация : Audio Coding 3
    Расширение режима : CM (complete main)
    Параметр Endianness формата : Big
    Идентификатор кодека : A_AC3
    Продолжительность : 46 м.
    Вид битрейта : Постоянный
    Битрейт : 384 Кбит/сек
    Каналы : 6 каналов
    Расположение каналов : Front: L C R, Side: L R, LFE
    Частота : 48,0 КГц
    Битовая глубина : 16 бит
    Метод сжатия : С потерями
    Размер потока : 127 Мбайт (5%)
    Заголовок : Jaskier
    Язык : Russian
    Default : Нет
    Forced : Нет

    Аудио #3
    Идентификатор : 4
    Формат : AC-3
    Формат/Информация : Audio Coding 3
    Расширение режима : CM (complete main)
    Параметр Endianness формата : Big
    Идентификатор кодека : A_AC3
    Продолжительность : 46 м.
    Вид битрейта : Постоянный
    Битрейт : 384 Кбит/сек
    Каналы : 6 каналов
    Расположение каналов : Front: L C R, Side: L R, LFE
    Частота : 48,0 КГц
    Битовая глубина : 16 бит
    Метод сжатия : С потерями
    Размер потока : 127 Мбайт (5%)
    Заголовок : Original
    Язык : English
    Default : Нет
    Forced : Нет

    Текст
    Идентификатор : 5
    Формат : UTF-8
    Идентификатор кодека : S_TEXT/UTF8
    Идентификатор кодека/Информация : UTF-8 Plain Text
    Язык : English
    Default : Нет
    Forced : Нет
    Скриншоты:

    © Оформление by .::Ворон::.
    pb.wtf
    KВорон писал(а):

    заголовок не менять.



  • Скачать Ходячие мертвецы 7 сезон 2 серия HDTV 720p через торрент http://pic.kartinco.top/images/6/ordi9.jpg Скачать фильм Ходячие мертвецы 7 сезон 2 серия HDTV 720p через торрент бесплантно в хорошем качестве Е:Сериал рассказывает историю жизни семьи шерифа после того, как «зомби» - эпидемия апокалиптических масштабов захлестнула земной шар. ... 9.3 10 19
    Info! Золотая раздача, скачанное не засчитывается.
    Торрент: Зарегистрирован [2016-11-01 09:18] · скачан: 90 раз
    Статус: √ проверено
    Размер: 5.46 GB
    Как cкачать? Как скачать Ходячие мертвецы 7 сезон 2 серия HDTV 720p через торрент | qTorrent



    Последний раз редактировалось: Ворон (2016-11-01 09:20), всего редактировалось 2 раз(а)


    >> Регистрируемся здесь <<






    Отзывы и комментарии о схеме читаем и пишем здесь: ---> Отзывы и комментарии о схеме

    Новые благодарочки в телеграм довольных пользователей:
    скриншот   скриншот   скриншот   скриншот   скриншот

    24-10-2016 06:26 Ходячие мертвецы 7 сезон 2 серия HDTV 720p Скачать торрент  

    За любой спойлер в теме, удаления акаунта с сайта Вам гарантировано.pb.wtf



    24-10-2016 08:14 Ходячие мертвецы 7 сезон 2 серия HDTV 720p Скачать торрент  

    жёсткая серияpb.wtf



    24-10-2016 18:22 Ходячие мертвецы 7 сезон 2 серия HDTV 720p Скачать торрент  

    pb.wtf



    25-10-2016 19:55 Ходячие мертвецы 7 сезон 2 серия HDTV 720p Скачать торрент  

    Цитата:

    Вообще, сейчас если на трезвую голову эпизод оценивать, то это, пожалуй, одна из самых сильных психологических серий в индустрии за последнее время. Я не припомню такого даже в кино. Впечатляет не отсутствие цензуры, а именно психологический момент ситуации. Практически 40 минут напряжения и безнадежности, которое команда съемочная на зрителя передала так, что лучше и не снять уже, скорее всего. Тройка основных актеров сыграла очень прилично! Ситуацию портят разве что покерфейсы остальных героев. 10 из 10.

    Дифирамбы сезону петь смысла нет, такой серией они подняли планку, которую сами уже побить точно не смогут. Да и вспоминая во что сериал от сезона к сезону превращался... Вполне может ожидать 15 последующих серий соплежуйства и бессмысленного скитания новоиспеченных рабов.

    pb.wtf



    01-11-2016 18:34 Ходячие мертвецы 7 сезон 2 серия HDTV 720p Скачать торрент  

    ОЙ да, это самая сильная серия из всех, что было и из всего что я вообще смотрела за последнее время. Сумели задеть, признаю целиком и полностью. Отходила пару дней. Дальше, как и предполагалось будут лайтовые серии ниачем. Но я жду еще одной развязки, она должна быть.pb.wtf



    03-11-2016 15:31 Ходячие мертвецы 7 сезон 2 серия HDTV 720p Скачать торрент  

    будем очень посмотретьpb.wtf



    05-11-2016 16:51 Ходячие мертвецы 7 сезон 2 серия HDTV 720p Скачать торрент  

    Не фильм а шедевр!!!!!!!!!!!pb.wtf



      Дорогой пользователь! Огромная просьба, поблагодарите релизера, оцените раздачу и оставьте свои комментарий, если Вы скачали Ходячие мертвецы 7 сезон 2 серия HDTV 720p через торрент бесплатно! Внесите свою лепту в развитие PiratBit!
      Комментировать посты могут только пользователи прошедшие не сложную регистрацию
      Показать сообщения:    

      Ходячие мертвецы 7 сезон 2 серия HDTV 720p через торрент
      Скачать бесплатно Ходячие мертвецы 7 сезон 2 серия HDTV 720p
      Ходячие мертвецы 7 сезон 2 серия HDTV 720p скачать торрент
      Ходячие мертвецы 7 сезон 2 серия HDTV 720p смотреть онлайн
      Cкачать фильм Ходячие мертвецы 7 сезон 2 серия HDTV 720p бесплатно
      Ходячие мертвецы 7 сезон 2 серия HDTV 720p скачать торрент в хорошем качестве
      Ходячие мертвецы 7 сезон 2 серия HDTV 720p смотреть онлайн бесплатно в хорошем качестве


      Вы не можете начинать темы
      Вы не можете отвечать на сообщения
      Вы не можете редактировать свои сообщения
      Вы не можете удалять свои сообщения
      Вы не можете голосовать в опросах
      Вы не можете прикреплять файлы к сообщениям
      Вы можете скачивать файлы