Ссылка на приватное зеркало нашего сайта всего за 1$. Внимание количество ограничено!!!

2 сезон

iTunes

1 сезон

1

2 сезон

2 сезон

iTunes

1 сезон

RePack

30

Ultimate

ВАЖНО

ИГРА 18+

pack

RePack

MK11
pack

Забери бонус

RePack

jed

!!Акция!!

Alien_Rage

RePack

fifa19

RePack

Assassins Creed: Odyssey

RePack

NEED FOR SPEED™ PAYBACK

4 сезон

9 сезон

Бесстыжие 9 сезон

Все сериалы

все сериалы на PB.wtf

RePack

FAR CRY 5
  

Любой ценой / Hell or High Water (Дэвид Маккензи) [2016, драма, криминал, BDRip 1080p] Дубляж - [Лицензия / iTunes] pb.wtf

Любой ценой через торрент pb.wtf

Размер: 7.57 GB | Добавлен: 4 года назад | Торрент скачан:519 раз
Скачать  

13-11-2016 09:54 Любой ценой Скачать торрент  

Любой ценой / Hell or High Water

Год выпуска: 2016
Страна: США
Жанр: драма, криминал

Продолжительность: 01:42:15
Перевод: Дубляж - [Лицензия / iTunes]
Субтитры: английские (Full)
Режиссер: Дэвид Маккензи
В ролях:

Джефф Бриджес (Marcus Hamilton), Крис Пайн (Toby Howard), Бен Фостер (Tanner Howard), Джил Бирмингем (Alberto Parker), Дейл Дикки (Elsie), Уильям Стерчи (Mr. Clauson), Бак Тейлор (Old Man), Кристин Берг (Olney Teller), Кит Мэривезер (Rancher), Жакмо Буззел (Archer City Deputy), Кэти Миксон (Jenny Ann), Эмбер Мидфандер (Vernon Teller)
Описание:
Два брата-лузера решают наведаться в хранилища пары-тройки банков, которые много лет безбожно обкрадывают своих должников. Расследование дерзких ограблений с грубым почерком увенчает карьеру шерифа Маркуса. Но куда выведет это нехитрое дело?
Рейтинг:

MPAA: R - Лицам до 17 лет обязательно присутствие взрослого
Качество: BDRip 1080p
Формат: MKV
Видео: AVC, 1920x798 (2.40:1), 9566 kbps, 23,976 fps, 0,260 bpp
Аудио №1: русский / AC3 / 5.1 / 48 kHz / 384 kbps / |iTunes|
Аудио №2: английский / AC3 / 5.1 / 48 kHz / 640 kbps /
Навигация по главам: есть
Релиз от:
General
Unique ID : 191754622828746767654588807581000630907 (0x904298D5851D8921B182112CBF71827B)
Complete name : E:\Hell.or.High.Water.(2016).BDRip1080p.(qqss44).mkv
Format : Matroska
Format version : Version 2
File size : 7.57 GiB
Duration : 1 h 42 min
Overall bit rate : 10.6 Mb/s
Movie name : Hell.or.High.Water.(2016).BDRip1080p.(qqss44)
Encoded date : UTC 2016-11-13 07:53:45
Writing application : mkvmerge v7.9.0 ('Birds') 64bit
Writing library : libebml v1.3.1 + libmatroska v1.4.2

Video
ID : 1
Format : AVC
Format/Info : Advanced Video Codec
Format profile : High@L4.1
Format settings, CABAC : Yes
Format settings, ReFrames : 5 frames
Codec ID : V_MPEG4/ISO/AVC
Duration : 1 h 42 min
Bit rate : 9 566 kb/s
Width : 1 920 pixels
Height : 798 pixels
Display aspect ratio : 2.40:1
Frame rate mode : Constant
Frame rate : 23.976 (24000/1001) FPS
Color space : YUV
Chroma subsampling : 4:2:0
Bit depth : 8 bits
Scan type : Progressive
Bits/(Pixel*Frame) : 0.260
Stream size : 6.68 GiB (88%)
Title : Hell.or.High.Water.(2016)
Writing library : x264 core 148 r2721kMod 72d53ab
Encoding settings : cabac=1 / ref=5 / deblock=1:-3:-3 / analyse=0x3:0x133 / me=umh / subme=11 / psy=1 / fade_compensate=0.00 / psy_rd=1.00:0.00 / mixed_ref=1 / me_range=32 / chroma_me=1 / trellis=2 / 8x8dct=1 / cqm=0 / deadzone=21,11 / fast_pskip=0 / chroma_qp_offset=-2 / threads=12 / lookahead_threads=3 / sliced_threads=0 / nr=0 / decimate=0 / interlaced=0 / bluray_compat=0 / constrained_intra=0 / fgo=0 / bframes=11 / b_pyramid=2 / b_adapt=2 / b_bias=0 / direct=3 / weightb=1 / open_gop=0 / weightp=2 / keyint=240 / keyint_min=23 / scenecut=40 / intra_refresh=0 / rc=2pass / mbtree=0 / bitrate=9566 / ratetol=1.0 / qcomp=0.60 / qpmin=0 / qpmax=69 / qpstep=4 / cplxblur=20.0 / qblur=0.5 / ip_ratio=1.40 / pb_ratio=1.30 / aq=3:0.80
Language : English
Default : Yes
Forced : No

Audio #1
ID : 2
Format : AC-3
Format/Info : Audio Coding 3
Mode extension : CM (complete main)
Format settings, Endianness : Big
Codec ID : A_AC3
Duration : 1 h 42 min
Bit rate mode : Constant
Bit rate : 384 kb/s
Channel(s) : 6 channels
Channel positions : Front: L C R, Side: L R, LFE
Sampling rate : 48.0 kHz
Frame rate : 31.250 FPS (1536 spf)
Compression mode : Lossy
Stream size : 281 MiB (4%)
Title : DUB | DD5.1 @ 384 kbps
Language : Russian
Default : Yes
Forced : No

Audio #2
ID : 3
Format : AC-3
Format/Info : Audio Coding 3
Mode extension : CM (complete main)
Format settings, Endianness : Big
Codec ID : A_AC3
Duration : 1 h 42 min
Bit rate mode : Constant
Bit rate : 640 kb/s
Channel(s) : 6 channels
Channel positions : Front: L C R, Side: L R, LFE
Sampling rate : 48.0 kHz
Frame rate : 31.250 FPS (1536 spf)
Compression mode : Lossy
Stream size : 468 MiB (6%)
Title : Original | DD5.1 @ 640 kbps
Language : English
Default : No
Forced : No

Text
ID : 4
Format : UTF-8
Codec ID : S_TEXT/UTF8
Codec ID/Info : UTF-8 Plain Text
Title : Full
Language : English
Default : No
Forced : No

Menu
00:00:00.000 : en:Chapter 1
00:09:37.243 : en:Chapter 2
00:13:50.454 : en:Chapter 3
00:22:14.583 : en:Chapter 4
00:28:40.385 : en:Chapter 5
00:31:54.329 : en:Chapter 6
00:40:49.613 : en:Chapter 7
00:46:49.932 : en:Chapter 8
00:55:45.091 : en:Chapter 9
01:02:06.472 : en:Chapter 10
01:09:52.897 : en:Chapter 11
01:14:04.648 : en:Chapter 12
01:20:56.226 : en:Chapter 13
01:29:09.135 : en:Chapter 14
01:35:03.864 : en:Chapter 15
01:38:28.277 : en:Chapter 16
pb.wtf



Скачать Любой ценой через торрент http://i3.imageban.ru/out/2016/11/13/561e0b7a3ce0b482fe5a9fce1fcaa328.png Скачать фильм Любой ценой через торрент бесплантно в хорошем качестве Описание: Два брата-лузера решают наведаться в хранилища пары-тройки банков, которые много лет безбожно обкрадывают своих должников. ... 10 10 7
Info! Серебряная раздача, засчитывается только 50% скачанного.
Торрент: Зарегистрирован [2016-11-13 09:54] · скачан: 519 раз
Статус: √ проверено
Размер: 7.57 GB
Как cкачать? Как скачать Любой ценой через торрент | qTorrent

% Раздел Тема Автор DL S | L
Фильмы с авторской озвучкой [ 1.46 GB ] Любой ценой / Hell or High Water [2016 BDRip] AVO [Д.Пучков aka Goblin] Twi7ter Скачать
1 | 0
Фильмы с авторской озвучкой [ 1.46 GB ] Любой ценой / Hell or High Water [2016 BDRip] [AVO] killermax2013 Скачать
1 | 0
Ultra HD (UHD: 2K, 4K, 8K) — видео сверхвысокой чёткости [ 64.61 GB ] Любой ценой / Hell or High Water [2016 UHD BDRemux 2160p] 3xAVO+DUB [] bober100 Скачать
1 | 0
Фильмы [HD 720p, 1080p] (Хороший звук DUB, MVO) [ 7.09 GB ] Любой ценой / Hell or High Water [2016 BDRip 720p от _denis_100 | NNNB] DUB + 3xAVO + Original + Sub _denis_100 Скачать
1 | 0
Фильмы (Blu-ray, BD-Remux, HDDVD) [ 29.24 GB ] Любой ценой / Hell or High Water [2016 BD Remux 1080p] [] DUB+AVO bober100 Скачать
1 | 0
Фильмы [HD 720p, 1080p] (Хороший звук DUB, MVO) [ 5.76 GB ] Любой ценой / Hell or High Water [2016 BDRip 720p] DUB AVO potroks Скачать
1 | 0
Фильмы 2016 [DVDrip, WEB-DLRip, HDrip] (DUB, MVO) [ 1.46 GB ] Любой ценой / Hell or High Water [2016 BDRip] - [] Twi7ter Скачать
1 | 0

28-11-2019 20:33  

Отключить всю рекламу на сайте

13-11-2016 09:58 Любой ценой Скачать торрент  

Классный фильм, мне очень очень понравился, советую посмотретьpb.wtf



13-11-2016 16:52 Любой ценой Скачать торрент  

Russian Mafia писал(а):

Классный фильм, мне очень очень понравился, советую посмотреть

Согласен, только название чет поменялиpb.wtf



14-11-2016 10:38 Любой ценой Скачать торрент  

фильм классный советуюpb.wtf



14-11-2016 13:01 Любой ценой Скачать торрент  

Большое спасибо...и звук хорош............фоль смотреть можно pb.wtf



    Дорогой пользователь! Огромная просьба, поблагодарите релизера, оцените раздачу и оставьте свои комментарий, если Вы скачали Любой ценой через торрент бесплатно! Внесите свою лепту в развитие PiratBit!
    Комментировать посты могут только пользователи прошедшие не сложную регистрацию
    Показать сообщения:    

    Любой ценой через торрент
    Скачать бесплатно Любой ценой
    Любой ценой скачать торрент
    Любой ценой смотреть онлайн
    Cкачать фильм Любой ценой бесплатно
    Любой ценой скачать торрент в хорошем качестве
    Любой ценой смотреть онлайн бесплатно в хорошем качестве


    Вы не можете начинать темы
    Вы не можете отвечать на сообщения
    Вы не можете редактировать свои сообщения
    Вы не можете удалять свои сообщения
    Вы не можете голосовать в опросах
    Вы не можете прикреплять файлы к сообщениям
    Вы можете скачивать файлы