новый адрес пиратбит piratbit
Мега распродажа FORZA HORIZON 4 ULTIMATE+ВСЕ DLC+ОНЛАЙН всего за 499р. 349 руб. (супер цена). Внимание количество ограничено!!!

iTunes

1+1

iTunes

мы

iTunes

1

iTunes

Чернобыль

iTunes

Ральф против интернета

Лицензия

ПШазам

Лицензия

Игра престолов

Лицензия

30
pack

ВАЖНО

!!Акция!!

Alien_RageХит недели

RePack

Resident Evil 21

ИГРА 18+

pack

RePack

Metro:Exodus

!!Акция!!

Alien_Rage

RePack

fifa19

RePack

Assassins Creed: Odyssey

RePack

NEED FOR SPEED™ PAYBACK

3 сезон

9 сезон

Бесстыжие 9 сезон

Все сериалы

все сериалы на PB.wtf

RePack

FAR CRY 5
Ребята, катастрофически не хватает 1900р. для оплаты серверов за Октябрь (всвязи с блокировками трафик упал в 3 раза), 1-2р., выручайте.
  

Зов Чести: Безграничная Война / Call of Duty: Infinite Warfare (Джейкоб Минкофф, Джордан Херш, Брайан Брайт) [2016 г., Игрофильм, WEBRip 1080p,Профессиональный (дублированный)] pb.wtf

Скачать  

15-11-2016 11:04 Зов Чести: Безграничная Война Скачать торрент  

Зов Чести: Безграничная Война / Call of Duty: Infinite Warfare
Год выпуска: 2016
Страна: США
Жанр: Игрофильм
Разработчик игры: Infinity Ward (США)
Создатель видео: GamingWalkDi
Продолжительность: 03:14:45
Перевод:Профессиональный (дублированный) [1C]
Субтитры:Русский хардсаб [Диалоги, экранные надписи и тп.]

Режиссер: Джейкоб Минкофф, Джордан Херш, Брайан Брайт

rating

В ролях: Брайан Блум, Клаудия Кристиан, Дэвид Хэрвуд, Эрик Ладин, Джейми Грей Хайдер, Джейсон Бэрри, Кит Харингтон и др.

Описание:

Call of Duty: Infinite Warfare – очередная часть в популярной серии шутеров от первого лица Call of Duty, в которой вас ждут грандиозные сражения, незабываемые персонажи, увлекательный кинематографический сюжет, а также новый эпический сеттинг. Впервые в истории серии противостояние развернется за пределами Земли на обширных пространствах Солнечной системы. Вам предстоит вжиться в роль Рейеса – первого пилота одного из последних оставшихся огромных боевых кораблей земного флота – Retribution, выполняющего также роль вашей базы во время путешествий по Солнечной системе.

Качество: WEBRip 1080p
Формат: MP4
Видео кодек: H.264
Аудио кодек: AAC
Видео: MPEG-4 / AVC Video (H.264) / 1920х1080 / 3742 kbps / 29.970 fps
Аудио#1: AAC, 2 channels, 44.1 kHz, 126 kbps
General
Complete name : Call.of.Duty.Infinite.Warfare.2016.D.WEBRip.1080p.mp4
Format : MPEG-4
Format profile : Base Media
Codec ID : isom
File size : 5.28 GiB
Duration : 3h 14mn
Overall bit rate : 3 878 Kbps
Writing application : Lavf56.40.101

Video
ID : 1
Format : AVC
Format/Info : Advanced Video Codec
Format profile : High@L4.0
Format settings, CABAC : Yes
Format settings, ReFrames : 2 frames
Codec ID : avc1
Codec ID/Info : Advanced Video Coding
Duration : 3h 14mn
Duration_FirstFrame : -33ms
Bit rate : 3 742 Kbps
Width : 1 920 pixels
Height : 1 080 pixels
Display aspect ratio : 16:9
Frame rate mode : Variable
Frame rate : 29.970 fps
Minimum frame rate : 29.970 fps
Maximum frame rate : 29.990 fps
Color space : YUV
Chroma subsampling : 4:2:0
Bit depth : 8 bits
Scan type : Progressive
Bits/(Pixel*Frame) : 0.060
Stream size : 5.09 GiB (97%)
Color primaries : BT.709
Transfer characteristics : BT.709
Matrix coefficients : BT.709
Color range : Limited

Audio
ID : 2
Format : AAC
Format/Info : Advanced Audio Codec
Format profile : LC
Codec ID : 40
Duration : 3h 14mn
Bit rate mode : Constant
Bit rate : 126 Kbps
Channel(s) : 2 channels
Channel positions : Front: L R
Sampling rate : 44.1 KHz
Compression mode : Lossy
Stream size : 175 MiB (3%)

pb.wtf



Скачать
Чтобы иметь возможность скачивать с Торрент Трекера, нужно Зарегистрироваться

Как скачивать  ·  Рейтинг и ограничения


>> Регистрируемся здесь <<






Отзывы и комментарии о схеме читаем и пишем здесь: ---> Отзывы и комментарии о схеме

Новые благодарочки в телеграм довольных пользователей:
скриншот   скриншот   скриншот   скриншот   скриншот

15-11-2016 12:18 Зов Чести: Безграничная Война Скачать торрент  

Глянем сейчас!?pb.wtf



    Дорогой пользователь! Огромная просьба, поблагодарите релизера, оцените раздачу и оставьте свои комментарий, если Вы скачали Зов Чести: Безграничная Война через торрент бесплатно! Внесите свою лепту в развитие PiratBit!
    Комментировать посты могут только пользователи прошедшие не сложную регистрацию
    Показать сообщения:    

    Зов Чести: Безграничная Война через торрент
    Скачать бесплатно Зов Чести: Безграничная Война
    Зов Чести: Безграничная Война скачать торрент
    Зов Чести: Безграничная Война смотреть онлайн
    Cкачать фильм Зов Чести: Безграничная Война бесплатно
    Зов Чести: Безграничная Война скачать торрент в хорошем качестве
    Зов Чести: Безграничная Война смотреть онлайн бесплатно в хорошем качестве


    Вы не можете начинать темы
    Вы не можете отвечать на сообщения
    Вы не можете редактировать свои сообщения
    Вы не можете удалять свои сообщения
    Вы не можете голосовать в опросах
    Вы не можете прикреплять файлы к сообщениям
    Вы не можете скачивать файлы