Всегда рабочее зеркало без VPN и Proxy просто перед .vidak.icu напиши любое слово или цифру, Пример http://adag.vidak.icu

MVO

2 сезон

1 сезон

1

1 сезон

iTunes

2 сезон

13

1 сезон

Распродажа

pack

Рекомендуем

Пиратка

30

ВАЖНО

RePack

MK11

RePack

jed

RePack

fifa19

RePack

RDR2

RePack

NEED FOR SPEED™ PAYBACK

Кинопоиск HD

6 сезон

 Острые козырьки 6 сезон

Все сериалы

все сериалы на PB.wtf

RePack

FAR CRY 5

Anonymous, нам критически не хватает 5601 руб. на оплату серверов и переферии за Апрель, помоги нам пожалуйста, вся надежда только на тебя. В благодарность мы отключим тебе всю рекламу на сайте!

×
  
Magnet ссылка

Флеш Гордон / Флеш Гордон встречает космических болельщиц / Flesh Gordon Meets the Cosmic Cheerleaders (Ховард Зим / Howard Ziehm) [1990 г., Фантастика, комедия, DVDRip by _Один_777] AVO (Горчаков) pb.wtf

Флеш Гордон через торрент pb.wtf

Размер: 750 MB | Добавлен: 5 лет 6 мес. назад | Торрент скачан:11 раз
Смотреть онлайн Флеш Гордон | Скачать    Ребята, помогите собрать деньги на оплату серверов!!!

21-11-2016 09:06 Флеш Гордон Скачать торрент  

Флеш Гордон / Флеш Гордон встречает космических болельщиц / Flesh Gordon Meets the Cosmic Cheerleaders
«Пришли, чтобы спасти вселенную от дьявольской угрозы... Галактической импотенции!»

Год выпуска: 1990
Страна: Канада / Filmvest International
Жанр: Фантастика, комедия
Продолжительность: 01:42:22
Перевод: Авторский (одноголосый закадровый) Горчаков
Cубтитры: нет

Режиссер: Ховард Зим / Howard Ziehm

В ролях: Винс Мурдокко, Робин Келли, Тони Трэвис, Уильям Дэннис Хант, Морган Фокс, Брюс Скотт, Морин Уэбб, Стиви-Лин Рэй, Шэрон Роули, Блэйр Кашино...

Описание: Статный кудрявый малый Флеш Гордон попадает на далекую планету, где его по известному делу одолевают аппетитные полуголые девахи.


Сэмпл: http://sendfile.su/1284265


Качество: DVDRip
Формат: AVI
Видео кодек: XviD
Аудио кодек: MP3
Видео: 640x480 (1.33:1), 25 fps, XviD build 73 ~886 kbps avg, 0.12 bit/pixel
Аудио: 48 kHz, MPEG Layer 3, 2 ch, ~128.00 kbps avg
Общее
Полное имя : G:\Flesh.Gordon.1990.DVDRip.740.[Один 777].avi
Формат : AVI
Формат/Информация : Audio Video Interleave
Размер файла : 750 Мбайт
Продолжительность : 1 ч. 42 м.
Общий поток : 1025 Кбит/сек
Программа кодирования : VirtualDubMod 1.5.10.3 | www.virtualdub-fr.org || (build 2550/release)
Библиотека кодирования : VirtualDubMod build 2550/release

Видео
Идентификатор : 0
Формат : MPEG-4 Visual
Профиль формата : Advanced Simple@L5
Параметр BVOP формата : 1
Параметр QPel формата : Нет
Параметр GMC формата : Без точки перехода
Параметр матрицы формата : Default (H.263)
Идентификатор кодека : XVID
Идентификатор кодека/Подсказка : XviD
Продолжительность : 1 ч. 42 м.
Битрейт : 887 Кбит/сек
Ширина : 640 пикселей
Высота : 480 пикселей
Соотношение сторон : 4:3
Частота кадров : 25,000 кадров/сек
Цветовое пространство : YUV
Субдискретизация насыщенности : 4:2:0
Битовая глубина : 8 бит
Тип развёртки : Прогрессивная
Метод сжатия : С потерями
Бит/(Пиксели*Кадры) : 0.115
Размер потока : 649 Мбайт (87%)
Библиотека кодирования : XviD 73

Аудио
Идентификатор : 1
Формат : MPEG Audio
Версия формата : Version 1
Профиль формата : Layer 3
Идентификатор кодека : 55
Идентификатор кодека/Подсказка : MP3
Продолжительность : 1 ч. 42 м.
Вид битрейта : Постоянный
Битрейт : 128 Кбит/сек
Каналы : 2 канала
Частота : 48,0 КГц
Метод сжатия : С потерями
Размер потока : 93,7 Мбайт (12%)
Выравнивание : Соединение по промежуткам
Продолжительность промежутка : 40 мс. (1,00 видеокадр)
Время предзагрузки промежутка : 504 мс.
Библиотека кодирования : LAME3.99r
Настройки программы : -m s -V 4 -q 2 -lowpass 17 -b 128
pb.wtf



Скачать Флеш Гордон через торрент http://i4.imageban.ru/out/2016/11/21/fcf57b62f96300ab0b1a150ec7be0985.jpg Скачать, смотреть онлайн Флеш Гордон бесплантно в хорошем качестве Описание: Статный кудрявый малый Флеш Гордон попадает на далекую планету, где его по известному делу одолевают аппетитные полуголые ... 10 10 6
Info! Золотая раздача, скачанное не засчитывается.
Торрент: Зарегистрирован [2016-11-21 09:06] · скачан: 11 раз
Статус: √ проверено
Размер: 750 MB
Как cкачать? Как скачать Флеш Гордон через торрент | UTorrent

28-11-2019 20:33  

Отключить всю рекламу на сайте

    Дорогой пользователь! Огромная просьба, поблагодарите релизера, оцените раздачу и оставьте свои комментарий, если Вы скачали Флеш Гордон через торрент бесплатно!
    Комментировать посты могут только пользователи прошедшие не сложную регистрацию
    Показать сообщения:    

    Флеш Гордон через торрент
    Скачать бесплатно Флеш Гордон
    Флеш Гордон скачать торрент
    Флеш Гордон смотреть онлайн
    Cкачать фильм Флеш Гордон бесплатно
    Флеш Гордон скачать торрент в хорошем качестве
    Флеш Гордон смотреть онлайн бесплатно в хорошем качестве


    Вы не можете начинать темы
    Вы не можете отвечать на сообщения
    Вы не можете редактировать свои сообщения
    Вы не можете удалять свои сообщения
    Вы не можете голосовать в опросах
    Вы не можете прикреплять файлы к сообщениям
    Вы можете скачивать файлы