Всегда рабочее зеркало без VPN и Proxy просто перед .vidak.icu напиши любое слово или цифру, Пример http://5gsc.vidak.icu

MVO

Лицензия

1 сезон

1

1 сезон

iTunes

1 сезон

13

1 сезон

Deluxe

pack

Рекомендуем

Пиратка

30

ВАЖНО

RePack

MK11

RePack

jed

RePack

fifa19

RePack

RDR2

RePack

NEED FOR SPEED™ PAYBACK

Кинопоиск HD

6 сезон

 Острые козырьки 6 сезон

Все сериалы

все сериалы на PB.wtf

RePack

FAR CRY 5
  
Magnet ссылка

Счастливый ключ / Leokki (Ли Ге-бёк) [2016, комедия, WEBRip] / Любительское (двухголосое) [Студия Колобок] pb.wtf

Счастливый ключ через торрент pb.wtf

Размер: 1.37 GB | Добавлен: 5 лет 7 мес. назад | Торрент скачан:35 раз
Смотреть онлайн Счастливый ключ | Скачать    Ребята, помогите собрать деньги на оплату серверов!!!

30-11-2016 12:08 Счастливый ключ Скачать торрент  

Информация о фильме

Название: Счастливый ключ

Оригинальное название: Leokki

Год выхода: 2016

Жанр: комедия

Режиссер: Ли Ге-бёк

В ролях: Ю Хэ-джин, Ли Джун, Чо Юн-хи, Лим Джи-ён, Чо Хан-чхоль, Сон Бён-сук, Чон Хе-бин

О фильме: Неудачливый актёр Чэ-сон думает свести счёты с жизнью и напоследок решает сходить в баню. У киллера Хён-ука дела наоборот идут в гору, и он оказывается в той же самой общественной бане. Но вот незадача — поскальзывается на мыле, ударяется головой и лишается памяти. Чэ-сон решает воспользоваться ситуацией и избавиться от своей никчёмной жизни, подменив ключ от шкафчика пострадавшего на свой. Теперь киллер станет актёром, а актёр — киллером.



Выпущено: Корея Южная

Продолжительность: 01:52:47

Озвучивание: Любительское (двухголосое) [Студия Колобок]

Роли озвучивали: den904, DeadSno

Перевод: Сергея Скворцова

Примечание: Релиз без рекламы.

Файл

Формат: AVI | XviD

Качество: WEBRip

Видео: 1530 kb/s, 720x304, 29.970 fps

Аудио: AC3, 192 kb/s (2 ch)

Субтитры: отсутствуют
Общее

Полное имя : D:загрузкиLukki.2016.WEB-DLRip.[Студия Колобок].avi

Формат : AVI

Формат/Информация : Audio Video Interleave

Размер файла : 1,37 Гбайт

Продолжительность : 1 ч. 52 м.

Общий поток : 1733 Кбит/сек

Программа кодирования : VirtualDubMod 1.5.10.3 | www.virtualdub-fr.org || (build 2550/release)

Библиотека кодирования : VirtualDubMod build 2550/release

Видео

Идентификатор : 0

Формат : MPEG-4 Visual

Профиль формата : Advanced Simple@L5

Параметр BVOP формата : 1

Параметр QPel формата : Нет

Параметр GMC формата : Без точки перехода

Параметр матрицы формата : Выборочная

Идентификатор кодека : XVID

Идентификатор кодека/Подсказка : XviD

Продолжительность : 1 ч. 52 м.

Битрейт : 1529 Кбит/сек

Ширина : 720 пикселей

Высота : 304 пикселя

Соотношение сторон : 2,35:1

Частота кадров : 29,970 кадров/сек

Цветовое пространство : YUV

Субдискретизация насыщенности : 4:2:0

Битовая глубина : 8 бит

Тип развёртки : Прогрессивная

Метод сжатия : С потерями

Бит/(Пиксели*Кадры) : 0.233

Размер потока : 1,20 Гбайт (88%)

Библиотека кодирования : XviD 73

Аудио

Идентификатор : 1

Формат : AC-3

Формат/Информация : Audio Coding 3

Расширение режима : CM (complete main)

Параметр Endianness формата : Big

Идентификатор кодека : 2000

Продолжительность : 1 ч. 52 м.

Вид битрейта : Постоянный

Битрейт : 192 Кбит/сек

Каналы : 2 канала

Расположение каналов : Front: L R

Частота : 48,0 КГц

Битовая глубина : 16 бит

Метод сжатия : С потерями

Размер потока : 155 Мбайт (11%)

Выравнивание : Разделение по промежуткам

Продолжительность промежутка : 33 мс. (1,00 видеокадр)

Время предзагрузки промежутка : 500 мс.




pb.wtf



Скачать Счастливый ключ через торрент http://i83.fastpic.ru/big/2016/1129/f6/d2a67c7cccf5243363eba8aff1cb38f6.png Скачать, смотреть онлайн Счастливый ключ бесплантно в хорошем качестве О фильме: Неудачливый актёр Чэ-сон думает свести счёты с жизнью и напоследок решает сходить в баню. У киллера Хён-ука дела наоборот идут в ... 10 10 4
Торрент: Зарегистрирован [2016-11-30 12:08] · скачан: 35 раз
Статус: T временная
Размер: 1.37 GB
Как cкачать? Как скачать Счастливый ключ через торрент | UTorrent

% Раздел Тема Автор DL S | L
T Фильмы 2016 (Звук TS, Cam, VO, DVO) [ 747 MB ] Счастливый ключ / Leokki [2016 WEBRip] / Любительское [Студия Колобок] Sherif Скачать
1 | 0

28-11-2019 20:33  

Отключить всю рекламу на сайте

    Дорогой пользователь! Огромная просьба, поблагодарите релизера, оцените раздачу и оставьте свои комментарий, если Вы скачали Счастливый ключ через торрент бесплатно!
    Комментировать посты могут только пользователи прошедшие не сложную регистрацию
    Показать сообщения:    

    Счастливый ключ через торрент
    Скачать бесплатно Счастливый ключ
    Счастливый ключ скачать торрент
    Счастливый ключ смотреть онлайн
    Cкачать фильм Счастливый ключ бесплатно
    Счастливый ключ скачать торрент в хорошем качестве
    Счастливый ключ смотреть онлайн бесплатно в хорошем качестве


    Вы не можете начинать темы
    Вы не можете отвечать на сообщения
    Вы не можете редактировать свои сообщения
    Вы не можете удалять свои сообщения
    Вы не можете голосовать в опросах
    Вы не можете прикреплять файлы к сообщениям
    Вы можете скачивать файлы