Ссылка на приватное зеркало всего за 1$. Внимание количество ограничено!!!

iTunes

1+1

iTunes

мы

WEB-DL

1

iTunes

Чернобыль

iTunes

Ральф против интернета

Лицензия

ПШазам

Лицензия

Оно 2

Лицензия

30
pack

Вам бонус

ВАЖНО

!!Акция!!

Alien_RageХит недели

RePack

Resident Evil 21

ИГРА 18+

pack

RePack

jed

!!Акция!!

Alien_Rage

RePack

fifa19

RePack

Assassins Creed: Odyssey

RePack

NEED FOR SPEED™ PAYBACK

3 сезон

9 сезон

Бесстыжие 9 сезон

Все сериалы

все сериалы на PB.wtf

RePack

FAR CRY 5
Ребята, катастрофически не хватает 1900р. для оплаты серверов за Октябрь (всвязи с блокировками трафик упал в 3 раза), 1-2р., выручайте.
  

12 разгневанных мужчин / 12 Angry Men (Сидни Люмет) [1957, драма, криминал, BDRip 1080p от еnvy / NNNB] MVO, AVO pb.wtf

12 разгневанных мужчин через торрент pb.wtf

Раздают: 29 [ 0 KB/s ]
Размер: 7.76 GB | Добавлен: 3 года назад | Торрент скачан:108 раз
Скачать  

11-12-2016 17:14 12 разгневанных мужчин Скачать торрент  

Информация о фильме

Русское название: 12 разгневанных мужчин
Оригинальное название: 12 Angry Men
Год выхода: 1957
Жанр: драма, криминал
Режиссер: Сидни Люмет
Выпущено: США
Продолжительность: 01:36:21
Перевод: Профессиональный (многоголосый закадровый), Авторский (одноголосый закадровый)
В ролях: Генри Фонда, Мартин Болсам, Джон Фидлер, Ли Дж. Кобб, Э. Г. Маршалл, Джек Клагмен, Эд Биннс, Джек Уорден, Джозеф Суини, Эд Бегли
Сюжет фильма

Юношу обвиняют в убийстве собственного отца, ему грозит электрический стул. Двенадцать присяжных собираются чтобы вынести вердикт: виновен или нет.
С начала заседания почти все склонились к тому, что виновен, и лишь только один из двенадцати позволил себе усомниться. Счет голосов присяжных по принципу «виновен — невиновен» был 11:1. К концу собрания мнения судей кардинально изменились…


Файл

Качество: BDRip 1080p (исходник Blu-Ray Disc Remux)
Формат: MKV
Видео: 1800x1080, 10949 Кбит/сек, 23,976 кадр/сек, AVC, x264, High@L4.1, 5:3, 0.235 Бит/[Пиксели*Кадры]
Аудио 1: AC-3, 192 Кбит/сек, 2 канала(ов), 48,0 КГц - Многоголосый закадровый, SomeWax / Русский
Аудио 2: AC-3, 192 Кбит/сек, 1 канала(ов), 48,0 КГц - Одноголосый закадровый, С.Визгунов / Русский
Аудио 3: AC-3, 192 Кбит/сек, 1 канала(ов), 48,0 КГц - Оригинал / Английский
Субтитры: Русские | Полные, Английские | Полные
Форсированные субтитры: Нет
Чаптеры (Главы): Есть






Автор Рипа: Группа:


Format : Matroska
Format version : Version 2
File size : 7.76 GiB
Duration : 1 h 36 min
Overall bit rate : 11.5 Mb/s
Movie name : 12.Angry.Men.(1957).BDRip.1080p.[envy]
Encoded date : UTC 2016-12-11 15:01:07
Writing application : mkvmerge v5.8.0 ('No Sleep / Pillow') built on Sep 2 2012 15:37:04
Writing library : libebml v1.2.3 + libmatroska v1.3.0

Video
ID : 1
Format : AVC
Format/Info : Advanced Video Codec
Format profile : High@L4.1
Format settings, CABAC : Yes
Format settings, ReFrames : 4 frames
Codec ID : V_MPEG4/ISO/AVC
Duration : 1 h 36 min
Bit rate : 10.9 Mb/s
Width : 1 800 pixels
Height : 1 080 pixels
Display aspect ratio : 5:3
Frame rate mode : Constant
Frame rate : 23.976 (24000/1001) FPS
Color space : YUV
Chroma subsampling : 4:2:0
Bit depth : 8 bits
Scan type : Progressive
Bits/(Pixel*Frame) : 0.235
Stream size : 7.21 GiB (93%)
Title : 12.Angry.Men.(1957).BDRip.1080p.[envy]
Writing library : x264 core 148 r2744 b97ae06
Encoding settings : cabac=1 / ref=4 / deblock=1:-3:-3 / analyse=0x3:0x133 / me=umh / subme=11 / psy=1 / psy_rd=1.00:0.00 / mixed_ref=1 / me_range=32 / chroma_me=1 / trellis=2 / 8x8dct=1 / cqm=0 / deadzone=21,11 / fast_pskip=0 / chroma_qp_offset=-2 / threads=12 / lookahead_threads=1 / sliced_threads=0 / nr=0 / decimate=1 / interlaced=0 / bluray_compat=0 / constrained_intra=0 / bframes=5 / b_pyramid=2 / b_adapt=2 / b_bias=0 / direct=3 / weightb=1 / open_gop=0 / weightp=2 / keyint=240 / keyint_min=23 / scenecut=40 / intra_refresh=0 / rc=2pass / mbtree=0 / bitrate=10949 / ratetol=2.0 / qcomp=0.60 / qpmin=0 / qpmax=69 / qpstep=4 / cplxblur=20.0 / qblur=0.5 / ip_ratio=1.40 / pb_ratio=1.30 / aq=1:0.70
Language : English
Default : Yes
Forced : No

Audio #1
ID : 2
Format : AC-3
Format/Info : Audio Coding 3
Mode extension : CM (complete main)
Format settings, Endianness : Big
Codec ID : A_AC3
Duration : 1 h 36 min
Bit rate mode : Constant
Bit rate : 192 kb/s
Channel(s) : 2 channels
Channel positions : Front: L R
Sampling rate : 48.0 kHz
Frame rate : 31.250 FPS (1536 spf)
Compression mode : Lossy
Stream size : 132 MiB (2%)
Title : MVO
Language : Russian
Default : Yes
Forced : No

Audio #2
ID : 3
Format : AC-3
Format/Info : Audio Coding 3
Mode extension : CM (complete main)
Format settings, Endianness : Big
Codec ID : A_AC3
Duration : 1 h 36 min
Bit rate mode : Constant
Bit rate : 192 kb/s
Channel(s) : 1 channel
Channel positions : Front: C
Sampling rate : 48.0 kHz
Frame rate : 31.250 FPS (1536 spf)
Compression mode : Lossy
Stream size : 132 MiB (2%)
Title : AVO Визгунов
Language : Russian
Default : No
Forced : No

Audio #3
ID : 4
Format : AC-3
Format/Info : Audio Coding 3
Mode extension : CM (complete main)
Format settings, Endianness : Big
Codec ID : A_AC3
Duration : 1 h 36 min
Bit rate mode : Constant
Bit rate : 192 kb/s
Channel(s) : 1 channel
Channel positions : Front: C
Sampling rate : 48.0 kHz
Frame rate : 31.250 FPS (1536 spf)
Compression mode : Lossy
Stream size : 132 MiB (2%)
Title : Eng
Language : English
Default : No
Forced : No

Text #1
ID : 5
Format : UTF-8
Codec ID : S_TEXT/UTF8
Codec ID/Info : UTF-8 Plain Text
Title : Rus full
Language : Russian
Default : No
Forced : No

Text #2
ID : 6
Format : UTF-8
Codec ID : S_TEXT/UTF8
Codec ID/Info : UTF-8 Plain Text
Title : Eng fulll
Language : English
Default : No
Forced : No

Menu
00:00:00.000 : en:00:00:00.000
00:05:45.345 : en:00:05:45.345
00:11:57.342 : en:00:11:57.342
00:15:20.920 : en:00:15:20.920
00:18:46.292 : en:00:18:46.292
00:24:02.066 : en:00:24:02.066
00:30:56.855 : en:00:30:56.855
00:34:45.250 : en:00:34:45.250
00:39:33.371 : en:00:39:33.371
00:48:22.900 : en:00:48:22.900
00:52:04.121 : en:00:52:04.121
00:53:20.823 : en:00:53:20.823
00:59:42.078 : en:00:59:42.078
01:08:28.688 : en:01:08:28.688
01:12:35.518 : en:01:12:35.518
01:17:56.046 : en:01:17:56.046
01:21:25.881 : en:01:21:25.881
01:29:09.886 : en:01:29:09.886

pb.wtf



Скачать 12 разгневанных мужчин через торрент http://img11.lostpic.net/2016/12/11/748a608affc048deec62ce16c8f9e540.png Скачать фильм 12 разгневанных мужчин через торрент бесплантно в хорошем качестве В ролях: Генри Фонда, Мартин Болсам, Джон Фидлер, Ли Дж. Кобб, Э. Г. Маршалл, Джек Клагмен, Эд Биннс, Джек Уорден, Джозеф Суини, Эд ... 10 10 5
Info! Золотая раздача, скачанное не засчитывается.
Торрент: Зарегистрирован [2016-12-11 17:14] · скачан: 108 раз
Статус: √ проверено
Размер: 7.76 GB
Как cкачать? Как скачать 12 разгневанных мужчин через торрент | qTorrent

28-11-2019 20:33  

Отключить всю рекламу на сайте

11-12-2016 17:30 12 разгневанных мужчин Скачать торрент  

x264 [info]: frame I:630 Avg QP:26.48 size:153201
x264 [info]: frame P:29804 Avg QP:29.30 size: 81339
x264 [info]: frame B:108191 Avg QP:31.51 size: 49815
Вполне хорошее качество. Сравнения с исходником в описании.pb.wtf



    Дорогой пользователь! Огромная просьба, поблагодарите релизера, оцените раздачу и оставьте свои комментарий, если Вы скачали 12 разгневанных мужчин через торрент бесплатно! Внесите свою лепту в развитие PiratBit!
    Комментировать посты могут только пользователи прошедшие не сложную регистрацию
    Показать сообщения:    

    12 разгневанных мужчин через торрент
    Скачать бесплатно 12 разгневанных мужчин
    12 разгневанных мужчин скачать торрент
    12 разгневанных мужчин смотреть онлайн
    Cкачать фильм 12 разгневанных мужчин бесплатно
    12 разгневанных мужчин скачать торрент в хорошем качестве
    12 разгневанных мужчин смотреть онлайн бесплатно в хорошем качестве


    Вы не можете начинать темы
    Вы не можете отвечать на сообщения
    Вы не можете редактировать свои сообщения
    Вы не можете удалять свои сообщения
    Вы не можете голосовать в опросах
    Вы не можете прикреплять файлы к сообщениям
    Вы можете скачивать файлы