Ссылка на приватное зеркало нашего сайта всего за 1$. Внимание количество ограничено!!!

2 сезон

iTunes

1 сезон

1

2 сезон

2 сезон

iTunes

1 сезон

RePack

30

Ultimate

ВАЖНО

ИГРА 18+

pack

RePack

MK11
pack

Забери бонус

RePack

jed

!!Акция!!

Alien_Rage

RePack

fifa19

RePack

Assassins Creed: Odyssey

RePack

NEED FOR SPEED™ PAYBACK

4 сезон

9 сезон

Бесстыжие 9 сезон

Все сериалы

все сериалы на PB.wtf

RePack

FAR CRY 5
  

Гусар на крыше / Le hussard sur le toit (Жан-Поль Раппно) [1995, драма, мелодрама, приключения, военный, BDRip 1080p by msltel] MVO pb.wtf

Гусар на крыше через торрент pb.wtf

Размер: 12.81 GB | Добавлен: 3 года 11 мес. назад | Торрент скачан:18 раз
Скачать  

18-12-2016 06:33 Гусар на крыше Скачать торрент  

Название: Гусар на крыше
Оригинальное название: Le hussard sur le toit
Год выпуска: 1995
Страна: Франция
Жанр: драма, мелодрама, приключения, военный
Продолжительность: 02:09:18
Перевод: профессиональный многоголосый

Режиссёр: Жан-Поль Раппно

В ролях: Жюльетт Бинош, Оливье Мартинес, Пьер Ардити, Франсуа Клюзе, Жан Янн, Клаудио Амендола, Изабель Карре, Карло Чекки, Кристиана Коэнди, Жак Серей

Описание: Действие приключенческой мелодрамы происходит в начале XIX века, после падения Наполеона. 25-летний итальянский полковник, скрывающийся во Франции от австрийской тайной полиции, бежит от преследования убийц в самый разгар холеры. Случай сводит его с молодой и красивой маркизой, которой он предлагает свою помощь, будучи юношей не только красивым, но и благородным. Вместе они переживают множество опасных и романтичных приключений на грани жизни и смерти, помочь преодолеть которые сможет только любовь…



Качество: BDRip 1080p Сравнение с исходником
Формат: MKV
Видео: MPEG-4 AVC, 12.2 Mбит/с, 1920х816, 23,976 кадра/с
Аудио 1: русский, AC3, 448 kbps, 6 ch, 48 kHz [профессиональный многоголосый, R5]
Аудио 2: французский, DTS, 1509 kbps, 6 ch, 48 kHz [оригинал]
Субтитры 1: русские
Субтитры 2: английские
Имеются неименованные главы/чаптеры.
Общее
Уникальный идентификатор : 237535423243055937335475096347395940708 (0xB2B3A8900671B2A3BF786293CF1AE164)
Полное имя : D:\Video\Гусар на крыше.1995.BDRip.1080p by msltel.mkv
Формат : Matroska
Версия формата : Version 4 / Version 2
Размер файла : 12,8 Гбайт
Продолжительность : 2 ч. 9 м.
Общий поток : 14,2 Мбит/сек
Название фильма : Rip by msltel
Дата кодирования : UTC 2016-12-18 03:10:39
Программа кодирования : mkvmerge v8.2.0 ('World of Adventure') 64bit
Библиотека кодирования : libebml v1.3.1 + libmatroska v1.4.2

Видео
Идентификатор : 1
Формат : AVC
Формат/Информация : Advanced Video Codec
Профиль формата : High@L4.1
Параметр CABAC формата : Да
Параметр ReFrames формата : 4 кадра
Идентификатор кодека : V_MPEG4/ISO/AVC
Продолжительность : 2 ч. 9 м.
Битрейт : 12,2 Мбит/сек
Ширина : 1920 пикселей
Высота : 816 пикселей
Соотношение сторон : 2,35:1
Режим частоты кадров : Постоянный
Частота кадров : 23,976 (24000/1001) кадра/сек
Цветовое пространство : YUV
Субдискретизация насыщенности : 4:2:0
Битовая глубина : 8 бит
Тип развёртки : Прогрессивная
Бит/(Пиксели*Кадры) : 0.325
Размер потока : 11,0 Гбайт (86%)
Библиотека кодирования : x264 core 146 r2538 121396c
Настройки программы : cabac=1 / ref=4 / deblock=1:-3:-3 / analyse=0x3:0x113 / me=umh / subme=9 / psy=1 / psy_rd=1.00:0.15 / mixed_ref=1 / me_range=32 / chroma_me=1 / trellis=1 / 8x8dct=1 / cqm=0 / deadzone=21,11 / fast_pskip=0 / chroma_qp_offset=-3 / threads=6 / lookahead_threads=1 / sliced_threads=0 / nr=0 / decimate=1 / interlaced=0 / bluray_compat=0 / constrained_intra=0 / bframes=11 / b_pyramid=2 / b_adapt=2 / b_bias=0 / direct=1 / weightb=0 / open_gop=0 / weightp=2 / keyint=230 / keyint_min=23 / scenecut=40 / intra_refresh=0 / rc_lookahead=40 / rc=crf / mbtree=0 / crf=18.7 / qcomp=0.60 / qpmin=0 / qpmax=69 / qpstep=4 / vbv_maxrate=50000 / vbv_bufsize=62500 / crf_max=0.0 / nal_hrd=none / filler=0 / ip_ratio=1.40 / pb_ratio=1.30 / aq=1:1.00
Язык : French
Default : Да
Forced : Нет

Аудио #1
Идентификатор : 2
Формат : AC-3
Формат/Информация : Audio Coding 3
Расширение режима : CM (complete main)
Параметр Endianness формата : Big
Идентификатор кодека : A_AC3
Продолжительность : 2 ч. 9 м.
Вид битрейта : Постоянный
Битрейт : 448 Кбит/сек
Каналы : 6 каналов
Расположение каналов : Front: L C R, Side: L R, LFE
Частота : 48,0 КГц
Частота кадров : 31,250 кадров/сек (1536 spf)
Метод сжатия : С потерями
Размер потока : 414 Мбайт (3%)
Заголовок : MVO (R5)
Язык : Russian
Default : Да
Forced : Нет

Аудио #2
Идентификатор : 3
Формат : DTS
Формат/Информация : Digital Theater Systems
Режим : 16
Параметр Endianness формата : Big
Идентификатор кодека : A_DTS
Продолжительность : 2 ч. 9 м.
Вид битрейта : Постоянный
Битрейт : 1509 Кбит/сек
Каналы : 6 каналов
Расположение каналов : Front: L C R, Side: L R, LFE
Частота : 48,0 КГц
Частота кадров : 93,750 кадра/сек (512 spf)
Битовая глубина : 16 бит
Метод сжатия : С потерями
Размер потока : 1,36 Гбайт (11%)
Заголовок : original
Язык : French
Default : Нет
Forced : Нет

Текст #1
Идентификатор : 4
Формат : UTF-8
Идентификатор кодека : S_TEXT/UTF8
Идентификатор кодека/Информация : UTF-8 Plain Text
Продолжительность : 2 ч. 3 м.
Битрейт : 47 бит/сек
Count of elements : 1086
Размер потока : 43,5 Кбайт (0%)
Заголовок : русские
Язык : Russian
Default : Нет
Forced : Нет

Текст #2
Идентификатор : 5
Формат : UTF-8
Идентификатор кодека : S_TEXT/UTF8
Идентификатор кодека/Информация : UTF-8 Plain Text
Продолжительность : 2 ч. 4 м.
Битрейт : 34 бит/сек
Count of elements : 970
Размер потока : 31,6 Кбайт (0%)
Заголовок : английские
Язык : English
Default : Нет
Forced : Нет

Меню
00:00:00.000 : :Chapter 01
00:05:20.153 : :Chapter 02
00:07:06.549 : :Chapter 03
00:12:59.194 : :Chapter 04
00:21:55.605 : :Chapter 05
00:24:16.078 : :Chapter 06
00:29:33.354 : :Chapter 07
00:35:08.898 : :Chapter 08
00:39:45.297 : :Chapter 09
00:48:32.242 : :Chapter 10
00:55:26.905 : :Chapter 11
01:01:41.322 : :Chapter 12
01:03:30.472 : :Chapter 13
01:07:06.856 : :Chapter 14
01:11:37.835 : :Chapter 15
01:14:25.792 : :Chapter 16
01:16:26.331 : :Chapter 17
01:19:12.287 : :Chapter 18
01:26:27.390 : :Chapter 19
01:29:34.202 : :Chapter 20
01:31:57.886 : :Chapter 21
01:41:09.520 : :Chapter 22
01:44:39.523 : :Chapter 23
01:58:46.993 : :Chapter 24
02:02:34.095 : :Chapter 25
02:09:18.167 : :Chapter 26
pb.wtf



Скачать Гусар на крыше через торрент http://s019.radikal.ru/i621/1612/fc/f34a63a44e5e.jpg Скачать фильм Гусар на крыше через торрент бесплантно в хорошем качестве Описание: Действие приключенческой мелодрамы происходит в начале XIX века, после падения Наполеона. 25-летний итальянский полковник, ... 10 10 3
Info! Золотая раздача, скачанное не засчитывается.
Торрент: Зарегистрирован [2016-12-18 06:33] · скачан: 18 раз
Статус: √ проверено
Размер: 12.81 GB
Как cкачать? Как скачать Гусар на крыше через торрент | qTorrent

% Раздел Тема Автор DL S | L
Фильмы [HD 720p, 1080p] (Хороший звук DUB, MVO) [ 5.09 GB ] Гусар на крыше / Le hussard sur le toit [1995 военный BDRip 720p by msltel] MVO msltel Скачать
1 | 0
Фильмы до 2000 г. [ 1.46 GB ] Гусар на крыше / Le hussard sur le toit / The Horseman on the Roof [1995 военный BDRip] [MVO] killermax2013 Скачать
1 | 0

28-11-2019 20:33  

Отключить всю рекламу на сайте

    Дорогой пользователь! Огромная просьба, поблагодарите релизера, оцените раздачу и оставьте свои комментарий, если Вы скачали Гусар на крыше через торрент бесплатно! Внесите свою лепту в развитие PiratBit!
    Комментировать посты могут только пользователи прошедшие не сложную регистрацию
    Показать сообщения:    

    Гусар на крыше через торрент
    Скачать бесплатно Гусар на крыше
    Гусар на крыше скачать торрент
    Гусар на крыше смотреть онлайн
    Cкачать фильм Гусар на крыше бесплатно
    Гусар на крыше скачать торрент в хорошем качестве
    Гусар на крыше смотреть онлайн бесплатно в хорошем качестве


    Вы не можете начинать темы
    Вы не можете отвечать на сообщения
    Вы не можете редактировать свои сообщения
    Вы не можете удалять свои сообщения
    Вы не можете голосовать в опросах
    Вы не можете прикреплять файлы к сообщениям
    Вы можете скачивать файлы