Ссылка на приватное зеркало нашего сайта всего за 1$. Внимание количество ограничено!!!

2 сезон

iTunes

1 сезон

1

2 сезон

2 сезон

iTunes

1 сезон

RePack

30

Ultimate

ВАЖНО

ИГРА 18+

pack

RePack

MK11
pack

Забери бонус

RePack

jed

!!Акция!!

Alien_Rage

RePack

fifa19

RePack

Assassins Creed: Odyssey

RePack

NEED FOR SPEED™ PAYBACK

4 сезон

9 сезон

Бесстыжие 9 сезон

Все сериалы

все сериалы на PB.wtf

RePack

FAR CRY 5
  

Тролли / Trolls (Уолт Дорн, Майк Митчелл) [2016 г., мультфильм, мюзикл, фэнтези, WEB-DLRip, Дубляж iTunes] pb.wtf

Тролли через торрент pb.wtf

Размер: 1.45 GB | Добавлен: 3 года 11 мес. назад | Торрент скачан:2640 раз
Скачать  

23-12-2016 18:21 Тролли Скачать торрент  

Тролли / Trolls
Год выпуска: 2016
Страна: США / DreamWorks Animation
Жанр: мультфильм, мюзикл, фэнтези
Продолжительность: 01:32:48
Перевод: Дубляж iTunes

Режиссер: Уолт Дорн, Майк Митчелл

rating

В ролях: Анна Кендрик, Джастин Тимберлэйк, Зои Дешанель, Кристофер Минц-Плассе, Кристин Барански, Расселл Брэнд, Гвен Стефани, Джон Клиз, Джеймс Корден, Джеффри Тэмбор

Описание: Отправляясь в увлекательное приключение, которое заведет ее далеко от привычного ей мира, Розочка объединяет усилия с самым мрачным троллем на свете по имени Цветан для достижения успеха в своей смелой миссии спасти ее друзей из тисков зловещих бергенов и их лидера, короля Хрящ Старший. Невероятные приключения Розочки проверят ее силу, покажут ее истинную суть и бросят вызов ее способности ударяться в пение в любой момент.

Качество: WEB-DLRip
Формат: AVI
Видео кодек: XviD
Аудио кодек: AC3
Видео: 720x304 (2.37:1), 23.976 fps, XviD build 50 ~1851 kbps avg, 0.35 bit/pixel
Аудио: 48 kHz, AC3 Dolby Digital, 3/2 (L,C,R,l,r) + LFE ch, ~384 kbps

Общее
Полное имя : F:\ФИЛЬМЫ\Тролли.2016.D.WEB-DLRip.avi
Формат : AVI
Формат/Информация : Audio Video Interleave
Размер файла : 1,45 Гбайт
Продолжительность : 1 ч. 32 м.
Общий поток : 2244 Кбит/сек
Программа кодирования : VirtualDubMod 1.5.10.3 | www.virtualdub-fr.org || (build 2550/release)
Библиотека кодирования : VirtualDubMod build 2550/release

Видео
Идентификатор : 0
Формат : MPEG-4 Visual
Профиль формата : Advanced Simple@L5
Параметр BVOP формата : 1
Параметр QPel формата : Нет
Параметр GMC формата : Без точки перехода
Параметр матрицы формата : Default (MPEG)
Идентификатор кодека : XVID
Идентификатор кодека/Подсказка : XviD
Продолжительность : 1 ч. 32 м.
Битрейт : 1852 Кбит/сек
Ширина : 720 пикселей
Высота : 304 пикселя
Соотношение сторон : 2,35:1
Частота кадров : 23,976 (24000/1001) кадра/сек
Цветовое пространство : YUV
Субдискретизация насыщенности : 4:2:0
Битовая глубина : 8 бит
Тип развёртки : Прогрессивная
Метод сжатия : С потерями
Бит/(Пиксели*Кадры) : 0.353
Размер потока : 1,20 Гбайт (83%)
Библиотека кодирования : XviD 1.2.1 (UTC 2008-12-04)

Аудио
Идентификатор : 1
Формат : AC-3
Формат/Информация : Audio Coding 3
Расширение режима : CM (complete main)
Параметр Endianness формата : Big
Идентификатор кодека : 2000
Продолжительность : 1 ч. 32 м.
Вид битрейта : Постоянный
Битрейт : 384 Кбит/сек
Каналы : 6 каналов
Расположение каналов : Front: L C R, Side: L R, LFE
Частота : 48,0 КГц
Частота кадров : 31,250 кадров/сек (1536 spf)
Битовая глубина : 16 бит
Метод сжатия : С потерями
Размер потока : 254 Мбайт (17%)
Выравнивание : Разделение по промежуткам
Продолжительность промежутка : 42 мс. (1,00 видеокадр)
Время предзагрузки промежутка : 500 мс.

pb.wtf



Скачать Тролли через торрент http://i87.fastpic.ru/big/2016/1223/ca/26083c84b966e3fd7c9510a54a0dbaca.png Скачать фильм Тролли через торрент бесплантно в хорошем качестве Описание: Отправляясь в увлекательное , которое заведет ее далеко от привычного ей мира, Розочка объединяет усилия с самым ... 9.9 10 53
Info! Золотая раздача, скачанное не засчитывается.
Торрент: Зарегистрирован [2016-12-23 18:21] · скачан: 2 640 раз
Статус: √ проверено
Размер: 1.45 GB
Как cкачать? Как скачать Тролли через торрент | qTorrent

% Раздел Тема Автор DL S | L
Иностранные мультфильмы [ 1.46 GB ] Тролли. Мировой тур / Trolls World Tour [2020 мультфильм мюзикл BDRip] - [] Twi7ter Скачать
51 | 1
Иностранные мультфильмы [ 744 MB ] Тролли. Мировой тур / Trolls World Tour [2020 мультфильм мюзикл HDRip] DUB [] bober100 Скачать
1 | 0
3D Мультфильмы [ 8.29 GB ] Тролли. Мировой тур 3Д / Trolls World Tour 3D [2020 мультфильм мюзикл BDRip 1080p ] DUB [] bober100 Скачать
2 | 0
Иностранные мультфильмы [ 1.46 GB ] Тролли. Мировой тур / Trolls World Tour [2020 мультфильм мюзикл BDRip-AVC] DUB [] bober100 Скачать
2 | 0
Иностранные мультфильмы [ 1.46 GB ] Тролли. Мировой тур / Trolls World Tour [2020 мультфильм мюзикл BDRip] DUB [] bober100 Скачать
1 | 0
Зарубежные Мультфильмы (BDRip 1080p, 720p, Blu-ray, BD-Remux) [ 34.14 GB ] Тролли. Мировой тур / Trolls World Tour [2020 мультфильм мюзикл Blu-Ray 1080p ] DUB [] bober100 Скачать
1 | 0
Зарубежные Мультфильмы (BDRip 1080p, 720p, Blu-ray, BD-Remux) [ 30.77 GB ] Тролли. Мировой тур / Trolls World Tour [2020 мультфильм мюзикл BD Remux 1080p ] DUB [] bober100 Скачать
1 | 0

28-11-2019 20:33  

Отключить всю рекламу на сайте

28-12-2016 05:57 Тролли Скачать торрент  

pb.wtf



18-10-2018 11:47 Тролли Скачать торрент  

СПСpb.wtf



    Дорогой пользователь! Огромная просьба, поблагодарите релизера, оцените раздачу и оставьте свои комментарий, если Вы скачали Тролли через торрент бесплатно! Внесите свою лепту в развитие PiratBit!
    Комментировать посты могут только пользователи прошедшие не сложную регистрацию
    Показать сообщения:    

    Тролли через торрент
    Скачать бесплатно Тролли
    Тролли скачать торрент
    Тролли смотреть онлайн
    Cкачать фильм Тролли бесплатно
    Тролли скачать торрент в хорошем качестве
    Тролли смотреть онлайн бесплатно в хорошем качестве


    Вы не можете начинать темы
    Вы не можете отвечать на сообщения
    Вы не можете редактировать свои сообщения
    Вы не можете удалять свои сообщения
    Вы не можете голосовать в опросах
    Вы не можете прикреплять файлы к сообщениям
    Вы можете скачивать файлы