Ссылка на приватное зеркало нашего сайта всего за 1$. Внимание количество ограничено!!!

2 сезон

iTunes

1 сезон

1

iTunes

iTunes

iTunes

1 сезон

RePack

30

ИГРА 18+

pack

ВАЖНО

!!Акция!!

Alien_RageХит недели

RePack

MK11
pack

Забери бонус

RePack

jed

!!Акция!!

Alien_Rage

RePack

fifa19

RePack

Assassins Creed: Odyssey

RePack

NEED FOR SPEED™ PAYBACK

4 сезон

9 сезон

Бесстыжие 9 сезон

Все сериалы

все сериалы на PB.wtf

RePack

FAR CRY 5
  

Миньоны против газона / Mower Minions (Бруно Чоффард, Гленн МакКой) [2016 г., семейный, комедия, короткометражный, HDRip-AVC, Любительский (двухголосый)] pb.wtf

Миньоны против газона через торрент pb.wtf

Размер: 99 MB | Добавлен: 3 года 9 мес. назад | Торрент скачан:477 раз
Скачать  

27-12-2016 15:11 Миньоны против газона Скачать торрент  

Миньоны против газона / Mower Minions
Год выпуска: 2016
Страна: США
Жанр: семейный, комедия, короткометражный
Продолжительность: 00:04:12
Перевод: Любительский (двухголосый)(Shadow Dub Project)
Субтитры: Русские, английские, польские
Режиссер: Бруно Чоффард, Гленн МакКой

rating

Сэмпл http://multi-up.com/1132935

В ролях: Джоди Гелб, Дэйв Розенбаум

Описание: Миньонам нужно собрать $20, чтобы приобрести увиденный по телевизору блендер. Для этого они косят траву в доме престарелых.

Качество: HDRip-AVC
Формат: MKV
Видео кодек: MPEG4
Аудио кодек: MP3,АС3
Видео: AVC, 1024x552, 2610 kbps, 25 fps
Аудио#1: Русский -MP3, 218 kbps, 2 ch, 48 kHz
Аудио#2: английский -АС3, 448 kbps, 6 ch, 48 kHz .
Unique ID : 205824903978767726892553750358447089795 (0x9AD86F411D913100901F3C106AABE883)
Complete name : G:\МУЛЬТЫ\Mower.Minions.2016.HDRip.AVC.ExKinoRay.mkv
Format : Matroska
Format version : Version 2
File size : 98.7 MiB
Duration : 4mn 12s
Overall bit rate mode : Variable
Overall bit rate : 3 281 Kbps
Movie name : Mower Minions 2016 from ExKinoRay
Encoded date : UTC 2016-12-26 20:20:41
Writing application : mkvmerge v7.6.0 ('Garden of Dreams') 32bit built on Feb 11 2015 00:18:47
Writing library : libebml v1.3.1 + libmatroska v1.4.2
Attachment : Yes

Video
ID : 1
Format : AVC
Format/Info : Advanced Video Codec
Format profile : High@L4.1
Format settings, CABAC : Yes
Format settings, ReFrames : 12 frames
Codec ID : V_MPEG4/ISO/AVC
Duration : 4mn 12s
Bit rate : 2 610 Kbps
Width : 1 024 pixels
Height : 552 pixels
Display aspect ratio : 1.85:1
Frame rate mode : Constant
Frame rate : 23.976 fps
Color space : YUV
Chroma subsampling : 4:2:0
Bit depth : 8 bits
Scan type : Progressive
Bits/(Pixel*Frame) : 0.193
Stream size : 76.7 MiB (78%)
Writing library : x264 core 144 r2525 40bb568
Encoding settings : cabac=1 / ref=12 / deblock=1:-2:-2 / analyse=0x3:0x113 / me=umh / subme=10 / psy=1 / psy_rd=1.05:0.10 / mixed_ref=1 / me_range=32 / chroma_me=1 / trellis=2 / 8x8dct=1 / cqm=0 / deadzone=21,11 / fast_pskip=1 / chroma_qp_offset=-3 / threads=12 / lookahead_threads=3 / sliced_threads=0 / nr=0 / decimate=1 / interlaced=0 / bluray_compat=0 / constrained_intra=0 / bframes=10 / b_pyramid=2 / b_adapt=2 / b_bias=0 / direct=3 / weightb=1 / open_gop=0 / weightp=2 / keyint=240 / keyint_min=23 / scenecut=40 / intra_refresh=0 / rc_lookahead=40 / rc=2pass / mbtree=0 / bitrate=2610 / ratetol=1.0 / qcomp=0.65 / qpmin=0 / qpmax=51 / qpstep=4 / cplxblur=20.0 / qblur=0.5 / vbv_maxrate=50000 / vbv_bufsize=62500 / nal_hrd=none / filler=0 / ip_ratio=1.40 / pb_ratio=1.30 / aq=1:1.00
Default : Yes
Forced : No
Color primaries : BT.709
Transfer characteristics : BT.709
Matrix coefficients : BT.709

Audio #1
ID : 2
Format : MPEG Audio
Format version : Version 1
Format profile : Layer 3
Codec ID : A_MPEG/L3
Codec ID/Hint : MP3
Duration : 4mn 12s
Bit rate mode : Variable
Bit rate : 218 Kbps
Channel(s) : 2 channels
Sampling rate : 48.0 KHz
Compression mode : Lossy
Stream size : 6.56 MiB (7%)
Title : Dub Project
Language : Russian
Default : Yes
Forced : No

Audio #2
ID : 3
Format : AC-3
Format/Info : Audio Coding 3
Mode extension : CM (complete main)
Format settings, Endianness : Big
Codec ID : A_AC3
Duration : 4mn 12s
Bit rate mode : Constant
Bit rate : 448 Kbps
Channel(s) : 6 channels
Channel positions : Front: L C R, Side: L R, LFE
Sampling rate : 48.0 KHz
Bit depth : 16 bits
Compression mode : Lossy
Stream size : 13.5 MiB (14%)
Language : English
Default : No
Forced : No

Text #1
ID : 4
Format : UTF-8
Codec ID : S_TEXT/UTF8
Codec ID/Info : UTF-8 Plain Text
Language : Russian
Default : No
Forced : No

Text #2
ID : 5
Format : UTF-8
Codec ID : S_TEXT/UTF8
Codec ID/Info : UTF-8 Plain Text
Language : English
Default : No
Forced : No

Text #3
ID : 6
Format : UTF-8
Codec ID : S_TEXT/UTF8
Codec ID/Info : UTF-8 Plain Text
Language : Polish
Default : No
Forced : No


pb.wtf



Скачать Миньоны против газона через торрент http://pic1.kartinco.top/images/11/1jd15.jpg Скачать фильм Миньоны против газона через торрент бесплантно в хорошем качестве Описание: Миньонам нужно собрать $20, чтобы приобрести увиденный по телевизору блендер. Для этого они косят траву в доме ... 10 10 11
Торрент: Зарегистрирован [2016-12-27 15:11] · скачан: 477 раз
Статус: √ проверено
Размер: 99 MB
Как cкачать? Как скачать Миньоны против газона через торрент | qTorrent

% Раздел Тема Автор DL S | L
Короткометражные мультфильмы [ 59 MB ] Миньоны против газона / Mower Minions [2016 короткометражный BDRip] SUB koenig Скачать
2 | 0


Последний раз редактировалось: oleg8 (2016-12-28 06:51), всего редактировалось 6 раз(а)

28-11-2019 20:33  

Отключить всю рекламу на сайте

27-12-2016 17:25 Миньоны против газона Скачать торрент  

oleg8, http://pb.wtf/topic/180000

12.12 Заполнение тех. данныхpb.wtf



27-12-2016 19:36 Миньоны против газона Скачать торрент  

да удалите ее нахрен.ерундой заниматься не буду.народу скачать главное,а не в каком порядке битрейд или частота кадров и т.д.pb.wtf



28-12-2016 05:39 Миньоны против газона Скачать торрент  

oleg8 писал(а):

народу скачать главное, а не в каком порядке битрейд или частота кадров и т.д.

Вам пишут не о том, в каком порядке битрейт или частота кадров.
Вам пишут, что эти данные необходимо указывать, в соответствии с Правилами. Правила придуманы не просто так. Технические данные характеризуют качество раздаваемого материала, и народу не "главное скачать", а главное скачать в хорошем качестве.

oleg8 писал(а):

ерундой заниматься не буду

Что Вы тогда делаете в группе "Релизеры фильмов?", если вам лень поправить пару строчек?pb.wtf



28-12-2016 07:02 Миньоны против газона Скачать торрент  

Что Вы тогда делаете в группе "Релизеры фильмов?", если вам лень поправить пару строчек?

сам удивился,последний релиз мой в разделе фильмов года два назад был.pb.wtf



    Дорогой пользователь! Огромная просьба, поблагодарите релизера, оцените раздачу и оставьте свои комментарий, если Вы скачали Миньоны против газона через торрент бесплатно! Внесите свою лепту в развитие PiratBit!
    Комментировать посты могут только пользователи прошедшие не сложную регистрацию
    Показать сообщения:    

    Миньоны против газона через торрент
    Скачать бесплатно Миньоны против газона
    Миньоны против газона скачать торрент
    Миньоны против газона смотреть онлайн
    Cкачать фильм Миньоны против газона бесплатно
    Миньоны против газона скачать торрент в хорошем качестве
    Миньоны против газона смотреть онлайн бесплатно в хорошем качестве


    Вы не можете начинать темы
    Вы не можете отвечать на сообщения
    Вы не можете редактировать свои сообщения
    Вы не можете удалять свои сообщения
    Вы не можете голосовать в опросах
    Вы не можете прикреплять файлы к сообщениям
    Вы можете скачивать файлы