Ссылка на приватное зеркало нашего сайта всего за 1$. Внимание количество ограничено!!!

2 сезон

iTunes

1 сезон

1

2 сезон

2 сезон

iTunes

1 сезон

RePack

30

Новинка

ВАЖНО

ИГРА 18+

pack

RePack

MK11
pack

Забери бонус

RePack

jed

!!Акция!!

Alien_Rage

RePack

fifa19

RePack

Assassins Creed: Odyssey

RePack

NEED FOR SPEED™ PAYBACK

4 сезон

9 сезон

Бесстыжие 9 сезон

Все сериалы

все сериалы на PB.wtf

RePack

FAR CRY 5
  

Боязнь пауков / Arachnophobia (Фрэнк Маршалл) [1990, ужасы, фэнтези, триллер, комедия, BDRip 1080p by msltel] MVO, DVO, AVO pb.wtf

Боязнь пауков через торрент pb.wtf

Размер: 16.56 GB | Добавлен: 3 года 10 мес. назад | Торрент скачан:8 раз
Скачать  

07-01-2017 13:30 Боязнь пауков Скачать торрент  

Название: Боязнь пауков
Оригинальное название: Arachnophobia
Год выпуска: 1990
Страна: США
Жанр: ужасы, фэнтези, триллер, комедия
Продолжительность: 01:49:42
Перевод: профессиональный многоголосый, профессиональный двухголосый, авторский

Режиссёр: Фрэнк Маршалл

В ролях: Джефф Дэниелс, Харли Джейн Козак, Джон Гудмен, Джулиан Сэндс, Стюарт Пэнкин, Брайан МакНамара, Марк Л. Тейлор, Генри Джонс, Питер Джейсон, Джеймс Хэнди, Рой Броксмит, Кэти Кинни, Мэри Карвер, Гэретт Рэтлиф Хенсон, Марлен Кац, Джейн Марла Роббинс, Тео Шварц, Кори Уэллинс, Чэнс Бойер, Брэнди Норвуд, Фрэнсис Бэй, Луис Де Банзи, Уоррен Райс, Фрэнк Телфер, Майкл Стив Джонс, Фиона Уолш, Тересе Дел Пьеро, Натаниель Спитцли, Джей Скорпио, Май-Лис Кунихолм, Хуан Фернандес

Описание: В душе каждого живёт неуправляемый первобытный страх. И не однажды человек может пережить его. Доктор Росс Дженнингс страдает арахнофобией - экзотическим заболеванием, связанным с боязнью пауков. Он перебирается в маленький провинциальный городок в надежде на тихую и спокойную жизнь, но, по роковой случайности, из южноамериканских джунглей туда попадает смертоносный паук...



Качество: BDRip 1080p
Формат: MKV
Видео: MPEG-4 AVC, 18 Mбит/с, 1920x1040, 23,976 кадра/с
Аудио 1: русский, AC3, 192 kbps, 2 ch, 48 kHz [профессиональный многоголосый]
Аудио 2: русский, AC3, 448 kbps, 6 ch, 48 kHz [профессиональный двухголосый]
Аудио 3: русский, DTS, 1509 kbps, 6 ch, 48 kHz [авторский, Вартан Дохалов]
Аудио 4: английский,DTS, 1509 kbps, 6 ch, 48 kHz [оригинал]
Субтитры: английские (для слабослышащих)
Имеются неименованные главы/чаптеры.
Общее
Уникальный идентификатор : 252231246385842649998834587207881345144 (0xBDC1F8959556F898B9EC11B0B1524878)
Полное имя : D:\Video\Боязнь пауков.1990.BDRip.1080p by msltel.mkv
Формат : Matroska
Версия формата : Version 4 / Version 2
Размер файла : 16,6 Гбайт
Продолжительность : 1 ч. 49 м.
Общий поток : 21,6 Мбит/сек
Название фильма : Rip by msltel
Дата кодирования : UTC 2017-01-07 11:34:18
Программа кодирования : mkvmerge v8.2.0 ('World of Adventure') 64bit
Библиотека кодирования : libebml v1.3.1 + libmatroska v1.4.2

Видео
Идентификатор : 1
Формат : AVC
Формат/Информация : Advanced Video Codec
Профиль формата : High@L4.1
Параметр CABAC формата : Да
Параметр ReFrames формата : 4 кадра
Идентификатор кодека : V_MPEG4/ISO/AVC
Продолжительность : 1 ч. 49 м.
Битрейт : 18,0 Мбит/сек
Ширина : 1920 пикселей
Высота : 1040 пикселей
Соотношение сторон : 1,85:1
Режим частоты кадров : Постоянный
Частота кадров : 23,976 (24000/1001) кадра/сек
Цветовое пространство : YUV
Субдискретизация насыщенности : 4:2:0
Битовая глубина : 8 бит
Тип развёртки : Прогрессивная
Бит/(Пиксели*Кадры) : 0.375
Размер потока : 13,8 Гбайт (83%)
Библиотека кодирования : x264 core 146 r2538 121396c
Настройки программы : cabac=1 / ref=4 / deblock=1:-3:-3 / analyse=0x3:0x113 / me=umh / subme=10 / psy=1 / psy_rd=1.00:0.15 / mixed_ref=1 / me_range=32 / chroma_me=1 / trellis=2 / 8x8dct=1 / cqm=0 / deadzone=21,11 / fast_pskip=0 / chroma_qp_offset=-3 / threads=6 / lookahead_threads=1 / sliced_threads=0 / nr=0 / decimate=1 / interlaced=0 / bluray_compat=0 / constrained_intra=0 / bframes=16 / b_pyramid=2 / b_adapt=2 / b_bias=0 / direct=1 / weightb=0 / open_gop=0 / weightp=2 / keyint=230 / keyint_min=23 / scenecut=40 / intra_refresh=0 / rc_lookahead=40 / rc=crf / mbtree=0 / crf=18.2 / qcomp=0.60 / qpmin=0 / qpmax=69 / qpstep=4 / vbv_maxrate=50000 / vbv_bufsize=62500 / crf_max=0.0 / nal_hrd=none / filler=0 / ip_ratio=1.40 / pb_ratio=1.30 / aq=1:1.00
Язык : English
Default : Да
Forced : Нет

Аудио #1
Идентификатор : 2
Формат : AC-3
Формат/Информация : Audio Coding 3
Расширение режима : CM (complete main)
Параметр Endianness формата : Big
Идентификатор кодека : A_AC3
Продолжительность : 1 ч. 49 м.
Вид битрейта : Постоянный
Битрейт : 192 Кбит/сек
Каналы : 2 канала
Расположение каналов : Front: L R
Частота : 48,0 КГц
Частота кадров : 31,250 кадров/сек (1536 spf)
Метод сжатия : С потерями
Размер потока : 151 Мбайт (1%)
Заголовок : MVO
Язык : Russian
Default : Да
Forced : Нет

Аудио #2
Идентификатор : 3
Формат : AC-3
Формат/Информация : Audio Coding 3
Расширение режима : CM (complete main)
Параметр Endianness формата : Big
Идентификатор кодека : A_AC3
Продолжительность : 1 ч. 49 м.
Вид битрейта : Постоянный
Битрейт : 448 Кбит/сек
Каналы : 6 каналов
Расположение каналов : Front: L C R, Side: L R, LFE
Частота : 48,0 КГц
Частота кадров : 31,250 кадров/сек (1536 spf)
Метод сжатия : С потерями
Размер потока : 352 Мбайт (2%)
Заголовок : DVO
Язык : Russian
Default : Нет
Forced : Нет

Аудио #3
Идентификатор : 4
Формат : DTS
Формат/Информация : Digital Theater Systems
Режим : 16
Параметр Endianness формата : Big
Идентификатор кодека : A_DTS
Продолжительность : 1 ч. 49 м.
Вид битрейта : Постоянный
Битрейт : 1509 Кбит/сек
Каналы : 6 каналов
Расположение каналов : Front: L C R, Side: L R, LFE
Частота : 48,0 КГц
Частота кадров : 93,750 кадра/сек (512 spf)
Битовая глубина : 24 бит
Метод сжатия : С потерями
Размер потока : 1,16 Гбайт (7%)
Заголовок : AVO (Вартан Дохалов)
Язык : Russian
Default : Нет
Forced : Нет

Аудио #4
Идентификатор : 5
Формат : DTS
Формат/Информация : Digital Theater Systems
Режим : 16
Параметр Endianness формата : Big
Идентификатор кодека : A_DTS
Продолжительность : 1 ч. 49 м.
Вид битрейта : Постоянный
Битрейт : 1509 Кбит/сек
Каналы : 6 каналов
Расположение каналов : Front: L C R, Side: L R, LFE
Частота : 48,0 КГц
Частота кадров : 93,750 кадра/сек (512 spf)
Битовая глубина : 24 бит
Метод сжатия : С потерями
Размер потока : 1,16 Гбайт (7%)
Заголовок : original
Язык : English
Default : Нет
Forced : Нет

Текст
Идентификатор : 6
Формат : UTF-8
Идентификатор кодека : S_TEXT/UTF8
Идентификатор кодека/Информация : UTF-8 Plain Text
Продолжительность : 1 ч. 46 м.
Битрейт : 52 бит/сек
Count of elements : 1257
Размер потока : 40,8 Кбайт (0%)
Заголовок : английские (для слабослышащих)
Язык : English
Default : Нет
Forced : Нет

Меню
00:00:00.000 : :Chapter 01
00:17:26.462 : :Chapter 02
00:36:46.536 : :Chapter 03
00:58:04.522 : :Chapter 04
01:13:08.591 : :Chapter 05
01:26:17.213 : :Chapter 06
01:31:32.987 : :Chapter 07
01:43:41.673 : :Chapter 08
01:49:31.022 : :Chapter 09
pb.wtf



Скачать Боязнь пауков через торрент http://s018.radikal.ru/i515/1701/54/853cabb4ba57.png Скачать фильм Боязнь пауков через торрент бесплантно в хорошем качестве Описание: В душе каждого живёт неуправляемый первобытный страх. И не однажды человек может пережить его. Доктор Росс Дженнингс страдает ... 10 10 3
Info! Золотая раздача, скачанное не засчитывается.
Торрент: Зарегистрирован [2017-01-07 13:30] · скачан: 8 раз
Статус: √ проверено
Размер: 16.56 GB
Как cкачать? Как скачать Боязнь пауков через торрент | qTorrent

% Раздел Тема Автор DL S | L
Фильмы до 2000 г. [ 3.87 GB ] Боязнь пауков / Arachnophobia [1990 BDRip-AVC DVO MVO AVO] от ExKinoRay morfyi Скачать
1 | 0
Фильмы [HD 720p, 1080p] (Хороший звук DUB, MVO) [ 6.29 GB ] Боязнь пауков / Arachnophobia [1990 BDRip 720p by msltel] MVO DVO AVO msltel Скачать
1 | 0

28-11-2019 20:33  

Отключить всю рекламу на сайте

    Дорогой пользователь! Огромная просьба, поблагодарите релизера, оцените раздачу и оставьте свои комментарий, если Вы скачали Боязнь пауков через торрент бесплатно! Внесите свою лепту в развитие PiratBit!
    Комментировать посты могут только пользователи прошедшие не сложную регистрацию
    Показать сообщения:    

    Боязнь пауков через торрент
    Скачать бесплатно Боязнь пауков
    Боязнь пауков скачать торрент
    Боязнь пауков смотреть онлайн
    Cкачать фильм Боязнь пауков бесплатно
    Боязнь пауков скачать торрент в хорошем качестве
    Боязнь пауков смотреть онлайн бесплатно в хорошем качестве


    Вы не можете начинать темы
    Вы не можете отвечать на сообщения
    Вы не можете редактировать свои сообщения
    Вы не можете удалять свои сообщения
    Вы не можете голосовать в опросах
    Вы не можете прикреплять файлы к сообщениям
    Вы можете скачивать файлы