Достать ножи: Стеклянная луковица

MVO

Добыча

Дубляж

Уэнсдэй

1 сезон

Тор

Дубляж

13 клиническая

1 сезон

Жестокая ночь

MVO

Одни из нас

1 сезон

Deluxe

pack

Рекомендуем

30

Пиратка

ВАЖНО

ВАЖНО

Ghostwire

Пиратка

jed

RePack

nioh2

RePack

RDR2

RePack

NEED FOR SPEED™ PAYBACK

RePack

скачать торрент

Кинопоиск HD

Острые козырьки 6 сезон

6 сезон

FAR CRY 6

RePack

скачать торрент

Лицензия

скачать торрент

MVO

1

1 сезон

скачать торрент

1 сезон

скачать торрент

Лицензия

  

The Rolling Stones - Ride 'Em On Down [2016 г., рок-н-ролл, HDTVRip 1080p]

The Rolling Stones - Ride 'Em On Down через торрент pb.wtf

Размер: 188 MB | Добавлен: 6 лет назад | Торрент скачан:23 раза
| Скачать | Поддержите нас   

28-01-2017 17:51 The Rolling Stones - Ride 'Em On Down Скачать торрент  

The Rolling Stones - Ride 'Em On Down
Год выпуска: 2016
Жанр: рок-н-ролл
Продолжительность: 00:03:17
Качество:HDTVRip 1080p
Формат: MPEG4
Видео кодек: AVC
Аудио кодек:AAC
Видео: MPEG4 AVC, 1920x1080, 25,000 fps, 7665 kbps
Аудио#1: AAC 48,0 kHz, 2 ch, 320 kbps
Культовая рок-группа The Rolling Stones выпустила новый клип, снятый на композицию Ride 'Em On Down. Режиссером работы выступил Francois Rousselet. Главной героиней ролика стала известная актриса Кристен Стюарт. Группа The Rolling Stones основана в 1962 году. За эти годы коллектив выпустил 25 студийных альбомов. Музыканты работают в жанрах рок-н-ролл, ритм-н-блюз и блюз-рок.
Общее
Полное имя : The Rolling Stones - Ride 'Em On Down.mp4
Формат : MPEG-4
Профиль формата : Base Media / Version 2
Идентификатор кодека : mp42
Размер файла : 188 Мбайт
Продолжительность : 3 м. 17 с.
Режим общего битрейта : Переменный
Общий поток : 7991 Кбит/сек

Видео
Идентификатор : 1
Формат : AVC
Формат/Информация : Advanced Video Codec
Профиль формата : [email protected]
Параметр CABAC формата : Да
Параметр ReFrames формата : 4 кадра
Идентификатор кодека : avc1
Идентификатор кодека/Информация : Advanced Video Coding
Продолжительность : 3 м. 17 с.
Вид битрейта : Переменный
Битрейт : 7665 Кбит/сек
Максимальный битрейт : 40,0 Мбит/сек
Ширина : 1920 пикселей
Высота : 1080 пикселей
Соотношение сторон : 16:9
Режим частоты кадров : Постоянный
Частота кадров : 25,000 кадров/сек
Цветовое пространство : YUV
Субдискретизация насыщенности : 4:2:0
Битовая глубина : 8 бит
Тип развёртки : Прогрессивная
Бит/(Пиксели*Кадры) : 0.148
Размер потока : 181 Мбайт (96%)
Язык : English

Аудио
Идентификатор : 2
Формат : AAC
Формат/Информация : Advanced Audio Codec
Профиль формата : LC
Идентификатор кодека : 40
Продолжительность : 3 м. 17 с.
Продолжительность оригинала : 3 м. 17 с.
Вид битрейта : Переменный
Битрейт : 320 Кбит/сек
Каналы : 2 канала
Расположение каналов : Front: L R
Частота : 48,0 КГц
Метод сжатия : С потерями
Размер потока : 7,54 Мбайт (4%)
Размер потока оригинала : 7,54 Мбайт (4%)
Язык : English
mdhd_Duration : 197632



Скачать The Rolling Stones - Ride 'Em On Down через торрент http://funkyimg.com/i/2nZet.jpg Скачать, смотреть онлайн The Rolling Stones - Ride 'Em On Down [2016 г., рок-н-ролл, HDTVRip 1080p] бесплантно в хорошем качестве Год выпуска: 2016Жанр: рок-н-роллПродолжительность: ... 9.5 10 2
Торрент: Зарегистрирован [2017-01-28 17:51] · скачан: 23 раз
Статус: √ проверено
Размер: 188 MB
Как cкачать? Как скачать The Rolling Stones - Ride 'Em On Down через торрент | UTorrent

28-11-2019 20:33  


Отключить вcю реклaмy на сайте, в т.ч. и в плеере онлайн просмотра!

    Дорогой пользователь! Огромная просьба, поблагодарите релизера, оцените раздачу и оставьте свои комментарий, если Вы скачали The Rolling Stones - Ride 'Em On Down через торрент бесплатно!!
    Комментировать посты могут только пользователи прошедшие не сложную регистрацию
    Показать сообщения:    


    The Rolling Stones - Ride 'Em On Down через торрент
    Скачать бесплатно The Rolling Stones - Ride 'Em On Down
    The Rolling Stones - Ride 'Em On Down скачать торрент
    The Rolling Stones - Ride 'Em On Down смотреть онлайн
    Cкачать фильм The Rolling Stones - Ride 'Em On Down бесплатно
    The Rolling Stones - Ride 'Em On Down скачать торрент в хорошем качестве
    The Rolling Stones - Ride 'Em On Down смотреть онлайн бесплатно в хорошем качестве
    Вы не можете начинать темы
    Вы не можете отвечать на сообщения
    Вы не можете редактировать свои сообщения
    Вы не можете удалять свои сообщения
    Вы не можете голосовать в опросах
    Вы не можете прикреплять файлы к сообщениям
    Вы можете скачивать файлы
    The Rolling Stones - Ride 'Em On Down [2016 г., рок-н-ролл, HDTVRip 1080p] смотреть онлайн, скачать торрент picoco.icu