новый адрес
Ссылка на приватное зеркало всего за 1$. Внимание количество ограничено!!!

iTunes

1+1

iTunes

мы

WEB-DL

1

iTunes

Чернобыль

iTunes

Ральф против интернета

Лицензия

ПШазам

Лицензия

Оно 2

Лицензия

30
pack

Вам бонус

ВАЖНО

!!Акция!!

Alien_RageХит недели

RePack

Resident Evil 21

ИГРА 18+

pack

RePack

jed

!!Акция!!

Alien_Rage

RePack

fifa19

RePack

Assassins Creed: Odyssey

RePack

NEED FOR SPEED™ PAYBACK

3 сезон

9 сезон

Бесстыжие 9 сезон

Все сериалы

все сериалы на PB.wtf

RePack

FAR CRY 5
Ребята, катастрофически не хватает 1900р. для оплаты серверов за Октябрь (всвязи с блокировками трафик упал в 3 раза), 1-2р., выручайте.
  

Битва за Москву / Серии 1-2 из 2 (Юрий Озеров) [1985, драма, военный, DVDRip] pb.wtf

Битва за Москву через торрент pb.wtf

Размер: 4.37 GB | Добавлен: 2 года 9 мес. назад | Торрент скачан:84 раза
Скачать  

08-02-2017 15:42 Битва за Москву Скачать торрент  

Битва за Москву

Год выпуска: 1985

Страна: СССР, Чехословакия, Германия (ГДР), Вьетнам
Жанр: драма, военный

Продолжительность: 02:46:02
Перевод: Не требуется [Русский]
Режиссер: Юрий Озеров
В ролях:

Яков Трипольский (Сталин), Михаил Ульянов (Жуков), Александр Голобородько (Рокоссовский), Бруно Фрейндлих (маршал Шапошников), Николай Засухин (Молотов), Анатолий Никитин (Калинин), Владимир Трошин (Ворошилов), Степан Микоян, Вячеслав Езепов (секретарь Московского горкома Щербаков), Юозас Будрайтис (Рихард Зорге), Микк Микивер (Конев), Геннадий Сайфулин (генерал-майор Лелюшенко)
Описание:
К 60-летию битвы под Москвой. В фильме описаны события одной из важнейших битв Великой Отечественной Войны, когда впервые был нанесен сокрушительный удар немецко-фашистской армии и развеян миф о ее непобедимости.

Доп. информация: Картина состоит из двух частей: "Агрессия" и "Тайфун"
Рейтинг:

Качество: DVDRip
Формат: AVI
Видео: XviD, 704x304 (2.35:1), 1656 kbps, 25 fps, 0,310 bpp
Аудио: AC3 / 2.0 / 48 kHz / 192 kbps /
General
Complete name : E:\Bitva za Moskvu\01_Agressija.avi
Format : AVI
Format/Info : Audio Video Interleave
Format profile : OpenDML
File size : 2.16 GiB
Duration : 2 h 46 min
Overall bit rate : 1 860 kb/s
Writing application : VirtualDubModRus 1.5.10.2 (build 2542/release)
Writing library : VirtualDubMod build 2542/release

Video
ID : 0
Format : MPEG-4 Visual
Format profile : Advanced Simple@L5
Format settings, BVOP : 2
Format settings, QPel : No
Format settings, GMC : No warppoints
Format settings, Matrix : Default (MPEG)
Muxing mode : Packed bitstream
Codec ID : XVID
Codec ID/Hint : XviD
Duration : 2 h 46 min
Bit rate : 1 656 kb/s
Width : 704 pixels
Height : 304 pixels
Display aspect ratio : 2.35:1
Frame rate : 25.000 FPS
Color space : YUV
Chroma subsampling : 4:2:0
Bit depth : 8 bits
Scan type : Progressive
Compression mode : Lossy
Bits/(Pixel*Frame) : 0.310
Stream size : 1.92 GiB (89%)
Writing library : XviD 64

Audio
ID : 1
Format : AC-3
Format/Info : Audio Coding 3
Mode extension : CM (complete main)
Format settings, Endianness : Big
Codec ID : 2000
Duration : 2 h 45 min
Bit rate mode : Constant
Bit rate : 192 kb/s
Channel(s) : 2 channels
Channel positions : Front: L R
Sampling rate : 48.0 kHz
Frame rate : 31.250 FPS (1536 spf)
Compression mode : Lossy
Stream size : 228 MiB (10%)
Alignment : Aligned on interleaves
Interleave, duration : 40 ms (1.00 video frame)
Interleave, preload duration : 512 ms
pb.wtf



Скачать Битва за Москву через торрент http://i3.imageban.ru/out/2017/02/08/c5f5224fec78db26f494ae254c15c7f6.jpg Скачать фильм Битва за Москву через торрент бесплантно в хорошем качестве Описание: К 60-летию битвы под Москвой. В фильме описаны события одной из важнейших битв Великой Отечественной Войны, когда впервые был ... 9.6 10 8
Info! Золотая раздача, скачанное не засчитывается.
Торрент: Зарегистрирован [2017-02-08 15:42] · скачан: 84 раз
Статус: √ проверено
Размер: 4.37 GB
Как cкачать? Как скачать Битва за Москву через торрент | qTorrent

28-11-2019 20:33  

Отключить всю рекламу на сайте

    Дорогой пользователь! Огромная просьба, поблагодарите релизера, оцените раздачу и оставьте свои комментарий, если Вы скачали Битва за Москву через торрент бесплатно! Внесите свою лепту в развитие PiratBit!
    Комментировать посты могут только пользователи прошедшие не сложную регистрацию
    Показать сообщения:    

    Битва за Москву через торрент
    Скачать бесплатно Битва за Москву
    Битва за Москву скачать торрент
    Битва за Москву смотреть онлайн
    Cкачать фильм Битва за Москву бесплатно
    Битва за Москву скачать торрент в хорошем качестве
    Битва за Москву смотреть онлайн бесплатно в хорошем качестве


    Вы не можете начинать темы
    Вы не можете отвечать на сообщения
    Вы не можете редактировать свои сообщения
    Вы не можете удалять свои сообщения
    Вы не можете голосовать в опросах
    Вы не можете прикреплять файлы к сообщениям
    Вы можете скачивать файлы