Доктор Стрэндж

Лицензия

Добыча

Дубляж

Дом дракона

1 сезон

Тор

Дубляж

В эфире

Дубляж

Там, где раки поют

MVO

Властелин колец

1 сезон

GLOBAL

pack

Рекомендуем

30

Пиратка

ВАЖНО

ВАЖНО

Ghostwire

Пиратка

jed

RePack

nioh2

RePack

RDR2

RePack

NEED FOR SPEED™ PAYBACK

RePack

скачать торрент

Кинопоиск HD

Острые козырьки 6 сезон

6 сезон

FAR CRY 6

RePack

скачать торрент

Лицензия

скачать торрент

MVO

1

1 сезон

скачать торрент

1 сезон

скачать торрент

Лицензия

  

Хоббит: Нежданное путешествие / The Hobbit: An Unexpected Journey (Питер Джексон) [2012 г., фэнтези, приключения, BDRip-AVC, Дубляж, лицензия]

Хоббит: Нежданное путешествие через торрент pb.wtf

Качают: 1 [ 0 KB/s ]
Размер: 3.99 GB | Добавлен: 8 лет 11 мес. назад | Торрент скачан:1186 раз
Смотреть онлайн | Скачать   

08-06-2013 17:41 Хоббит: Нежданное путешествие Скачать торрент  

Хоббит: Нежданное путешествие / The Hobbit: An Unexpected Journey
Год выпуска: 2012
Страна: США
Жанр: фэнтези, приключения
Продолжительность: 169 мин. / 02:49:37
Перевод: Дубляж, Лицензия
Субтитры: Русские (Blu-ray), русские (Voronine), русские (форс.), украинские (форс.), английские (SDH), английские (SDH-Colored) |отключаемые|


Режиссер: Питер Джексон
Продюссер: Кэролинн Каннингэм, Питер Джексон, Фрэнсис Уолш
Сценарий: Фрэнсис Уолш, Филиппа Бойенс, Питер Джексон


Бюджет: $180 000 000
Премьера в мире: 13 декабря 2012




В ролях: Мартин Фриман, Иэн МакКеллен, Ричард Армитидж, Джеймс Несбитт, Кен Стотт, Грэм МакТавиш, Дин О’Горман, Эйдан Тернер, Джед Брофи, Марк Хэдлоу, Илья Хвостиков, Василий Бочкарев, Игорь Балалаев, Владислав Копп, Алексей Борзунов


Описание: Фильм повествует о путешествии Бильбо Бэггинса, который пускается в грандиозный поход, целью которого является отвоевание утраченного королевства гномов Эребор у зловещего дракона Смауга. Совершенно неожиданно с хоббитом налаживает контакт волшебник Гэндальф Серый. Так Бильбо находит себя, присоединяясь к компании тринадцати гномов, возглавляемых легендарным воином, Торином Дубощитом. Их путешествие проляжет через Дикий Край, через предательские земли, населенные гоблинами и орками, смертоносными варгами и гигантскими пауками, народом, меняющим шкуры, и волшебниками.И хотя их цель находится на Востоке среди пустошей Одинокой Горы, сначала им придется выбраться из туннелей гоблинов, где Бильбо встретит существо, которое изменит его жизнь навсегда... Голлума.Здесь, один на один с Голлумом, на берегу подземного озера, непритязательный Бильбо Бэггинс обнаружит не только скрытые в глубине души хитрость и отвагу, которые удивят даже его, но и завладеет «прелестным» колечком Голлума, которое обладает нежданными и полезными свойствами... Простое золотое кольцо, c которым связана судьба всего Средиземья, нитями, о которых Бильбо не мог даже вообразить.


Качество: BDRip-AVC
Формат: MKV
Видео кодек: H.264
Аудио кодек: AC3
Видео: H.264, 920x384 (2,40:1), 23,976 fps, 1573 Кbps, 0.186 bit/pixel
Аудио#1: 48 kHz, AC3 Dolby Digital, 3/2 (L,C,R,l,r) + LFE ch, ~448.00 kbps avg | Дубляж
Аудио#2: 48 kHz, AC3 Dolby Digital, 3/2 (L,C,R,l,r) + LFE ch, ~448.00 kbps avg | ENG
Аудио#3: 48 kHz, AC3 Dolby Digital, 3/2 (L,C,R,l,r) + LFE ch, ~448.00 kbps avg | Сербин
Аудио#4: 48 kHz, AC3 Dolby Digital, 3/2 (L,C,R,l,r) + LFE ch, ~448.00 kbps avg | UKR











D:Hobbit.Nezhdannoje.Puteshestvie.2012.D.BDRip.
General
Unique ID : 216772349971830917277467815422315984102 (0xA314D6039C5263BC86AF1345ABEBF4E6)
Complete name : D:Hobbit.Nezhdannoje.Puteshestvie.2012.D.BDRip.
Format : Matroska
Format version : Version 4 / Version 2
File size : 3.99 GiB
Duration : 2h 49mn
Overall bit rate : 3 367 Kbps
Movie name : Макс1
Encoded date : UTC 2013-04-03 19:01:39
Writing application : mkvmerge v5.9.0 ('On The Loose') built on Dec 15 2012 16:39:58
Writing library : libebml v1.3.0 + libmatroska v1.4.0
Video #1
ID : 1
Format : AVC
Format/Info : Advanced Video Codec
Format profile : [email protected]
Format settings, CABAC : Yes
Format settings, ReFrames : 14 frames
Codec ID : V_MPEG4/ISO/AVC
Duration : 2h 49mn
Bit rate : 1 573 Kbps
Width : 920 pixels
Height : 384 pixels
Display aspect ratio : 2.40:1
Frame rate : 23.976 fps
Color space : YUV
Chroma subsampling : 4:2:0
Bit depth : 8 bits
Scan type : Progressive
Bits/(Pixel*Frame) : 0.186
Stream size : 1.79 GiB (45%)
Title : The Hobbit: An Unexpected Journey
Writing library : x264 core 125 r2208 d9d2288
Encoding settings : cabac=1 / ref=14 / deblock=1:-2:-1 / analyse=0x3:0x133 / me=umh / subme=9 / psy=1 / psy_rd=1.10:0.10 / mixed_ref=1 / me_range=32 / chroma_me=1 / trellis=2 / 8x8dct=1 / cqm=0 / deadzone=21,11 / fast_pskip=0 / chroma_qp_offset=-3 / threads=6 / lookahead_threads=1 / sliced_threads=0 / nr=0 / decimate=1 / interlaced=0 / bluray_compat=0 / constrained_intra=0 / bframes=15 / b_pyramid=2 / b_adapt=2 / b_bias=0 / direct=3 / weightb=1 / open_gop=0 / weightp=2 / keyint=240 / keyint_min=23 / scenecut=40 / intra_refresh=0 / rc_lookahead=150 / rc=2pass / mbtree=1 / bitrate=1573 / ratetol=1.0 / qcomp=0.70 / qpmin=0 / qpmax=69 / qpstep=4 / cplxblur=20.0 / qblur=0.5 / vbv_maxrate=20000 / vbv_bufsize=32000 / nal_hrd=none / ip_ratio=1.35 / aq=1:0.80
Language : English
Default : Yes
Forced : No
Audio #2
ID : 2
Format : AC-3
Format/Info : Audio Coding 3
Mode extension : CM (complete main)
Format settings, Endianness : Big
Codec ID : A_AC3
Duration : 2h 49mn
Bit rate mode : Constant
Bit rate : 448 Kbps
Channel(s) : 6 channels
Channel positions : Front: L C R, Side: L R, LFE
Sampling rate : 48.0 KHz
Bit depth : 16 bits
Compression mode : Lossy
Stream size : 544 MiB (13%)
Title : AC3 5.1 @ 448 kbps - Дубляж, Blu-ray
Language : Russian
Default : Yes
Forced : No
Audio #3
ID : 3
Format : AC-3
Format/Info : Audio Coding 3
Mode extension : CM (complete main)
Format settings, Endianness : Big
Codec ID : A_AC3
Duration : 2h 49mn
Bit rate mode : Constant
Bit rate : 448 Kbps
Channel(s) : 6 channels
Channel positions : Front: L C R, Side: L R, LFE
Sampling rate : 48.0 KHz
Bit depth : 16 bits
Compression mode : Lossy
Stream size : 544 MiB (13%)
Title : Original | DD 5.1 @ 448 kbps
Language : English
Default : No
Forced : No
Audio #4
ID : 4
Format : AC-3
Format/Info : Audio Coding 3
Mode extension : CM (complete main)
Format settings, Endianness : Big
Codec ID : A_AC3
Duration : 2h 49mn
Bit rate mode : Constant
Bit rate : 448 Kbps
Channel(s) : 6 channels
Channel positions : Front: L C R, Side: L R, LFE
Sampling rate : 48.0 KHz
Bit depth : 16 bits
Compression mode : Lossy
Stream size : 544 MiB (13%)
Title : Сербин | DD 5.1 @ 448 kbps
Language : Russian
Default : No
Forced : No
Audio #5
ID : 5
Format : AC-3
Format/Info : Audio Coding 3
Mode extension : CM (complete main)
Format settings, Endianness : Big
Codec ID : A_AC3
Duration : 2h 49mn
Bit rate mode : Constant
Bit rate : 448 Kbps
Channel(s) : 6 channels
Channel positions : Front: L C R, Side: L R, LFE
Sampling rate : 48.0 KHz
Bit depth : 16 bits
Compression mode : Lossy
Stream size : 544 MiB (13%)
Title : Дубляж | DD 5.1 @ 448 kbps
Language : Ukrainian
Default : No
Forced : No
Text #6
ID : 6
Format : UTF-8
Codec ID : S_TEXT/UTF8
Codec ID/Info : UTF-8 Plain Text
Title : Forced
Language : Russian
Default : Yes
Forced : Yes
Text #7
ID : 7
Format : UTF-8
Codec ID : S_TEXT/UTF8
Codec ID/Info : UTF-8 Plain Text
Title : Forced
Language : Ukrainian
Default : No
Forced : No
Text #8
ID : 8
Format : UTF-8
Codec ID : S_TEXT/UTF8
Codec ID/Info : UTF-8 Plain Text
Title : Blu-ray
Language : Russian
Default : No
Forced : No
Text #9
ID : 9
Format : UTF-8
Codec ID : S_TEXT/UTF8
Codec ID/Info : UTF-8 Plain Text
Title : Voronine
Language : Russian
Default : No
Forced : No
Text #10
ID : 10
Format : UTF-8
Codec ID : S_TEXT/UTF8
Codec ID/Info : UTF-8 Plain Text
Title : SDH
Language : English
Default : No
Forced : No
Text #11
ID : 11
Format : UTF-8
Codec ID : S_TEXT/UTF8
Codec ID/Info : UTF-8 Plain Text
Title : SDH-Colored
Language : English
Default : No
Forced : No


Хоббит: Нежданное путешествие скачать торрент





Скачать Хоббит: Нежданное путешествие через торрент https://pic1.kartinco.top/images/21/xftoexyd9x.png Скачать, смотреть онлайн Хоббит: Нежданное путешествие бесплантно в хорошем качестве Описание: Фильм повествует о путешествии Бильбо Бэггинса, который пускается в грандиозный поход, целью которого является отвоевание ... 9.7 10 69
Info! Золотая раздача, скачанное не засчитывается.
Торрент: Зарегистрирован [2013-12-10 06:23] · скачан: 1 186 раз
Статус: √ проверено
Размер: 3.99 GB
Как cкачать? Как скачать Хоббит: Нежданное путешествие через торрент | UTorrent

% Раздел Тема Автор DL S | L
Ultra HD (UHD: 2K, 4K, 8K) [ 82.3 GB ] Хоббит: Нежданное путешествие / The Hobbit: An Unexpected Journey | Лицензия | 2160p bober100 Скачать
2 | 0
3D Фильмы [ 19.76 GB ] Хоббит: Нежданное путешествие 3D / The Hobbit: An Unexpected Journey 3D | | 1080p diletant Скачать
1 | 0
Фильмы (WEB-DL 720p, 1080p) [ 5.66 GB ] Хоббит: Нежданное путешествие [Полная версия | iTunes | 720p Messa-fan Скачать
1 | 0
Фильмы 2012 [ 2.91 GB ] Хоббит: Нежданное путешествие / The Hobbit: An Unexpected Journey | | BDRip dexter lex Скачать
1 | 0
Фильмы (HD 720p, 1080p) (48-60 fps) [ 14.5 GB ] Хоббит: Нежданное путешествие / The Hobbit: An Unexpected Journey | Дубляж | 720p, Дубляж / Extended / 60 fps Ворон Скачать
1 | 0
Фильмы 2012 [ 2.19 GB ] Хоббит: Нежданное путешествие / The Hobbit: An Unexpected Journey | Лицензия | HDRip, Дубляж, Лицензия [email protected] Скачать
2 | 0
Фильмы (Blu-ray, BD-Remux, HDDVD) [ 47.82 GB ] Хоббит: Нежданное путешествие / The Hobbit: An Unexpected Journey | DUB лицензия | BDRemux , DUB лицензия читерас Скачать
1 | 0



Последний раз редактировалось: МАКС1 (2013-09-10 15:09), всего редактировалось 1 раз

28-11-2019 20:33  


Отключить вcю реклaмy на сайте, в т.ч. и в плеере онлайн просмотра!

08-06-2013 18:46 Хоббит: Нежданное путешествие Скачать торрент  

Отличный фильм Раздающему благодарность



08-06-2013 18:57 Хоббит: Нежданное путешествие Скачать торрент  

блин раздачи :truce: :truce: :truce: :truce: :truce:



09-06-2013 09:01 Хоббит: Нежданное путешествие Скачать торрент  

А можно сделать такой же рип,только с одной звуковой дорожкой(дубляж) и вшитыми сабами на гоблинскую речь?Не люблю,когда понапихано всякого лишнего.



10-12-2013 13:44 Хоббит: Нежданное путешествие Скачать торрент  

я так понимаю это не режиссерская версия?



09-02-2017 18:09 Хоббит: Нежданное путешествие Скачать торрент  

Кто то может раздать?



    Дорогой пользователь! Огромная просьба, поблагодарите релизера, оцените раздачу и оставьте свои комментарий, если Вы скачали Хоббит: Нежданное путешествие через торрент бесплатно!!
    Комментировать посты могут только пользователи прошедшие не сложную регистрацию
    Показать сообщения:    


    Хоббит: Нежданное путешествие через торрент
    Скачать бесплатно Хоббит: Нежданное путешествие
    Хоббит: Нежданное путешествие скачать торрент
    Хоббит: Нежданное путешествие смотреть онлайн
    Cкачать фильм Хоббит: Нежданное путешествие бесплатно
    Хоббит: Нежданное путешествие скачать торрент в хорошем качестве
    Хоббит: Нежданное путешествие смотреть онлайн бесплатно в хорошем качестве
    Вы не можете начинать темы
    Вы не можете отвечать на сообщения
    Вы не можете редактировать свои сообщения
    Вы не можете удалять свои сообщения
    Вы не можете голосовать в опросах
    Вы не можете прикреплять файлы к сообщениям
    Вы можете скачивать файлы
    Хоббит: Нежданное путешествие / The Hobbit: An Unexpected Journey [2012 г., фэнтези, приключения, BDRip-AVC, Дубляж, лицензия] смотреть онлайн, скачать торрент picoco.icu