Мега распродажа FORZA HORIZON 4 ULTIMATE+ВСЕ DLC+ОНЛАЙН всего за 499р. 349 руб. (супер цена). Внимание количество ограничено!!!

Лицензия

30

iTunes

мы

iTunes

1

1 сезон

Чернобыль

1 сезон

Ральф против интернета

MVO

Покемон. Детектив Пикачу

8 сезон

Игра престолов

iTunes

1+1

ИГРА 18+

pack

ВАЖНО

!!Акция!!

Alien_RageХит недели

RePack

Resident Evil 21
pack

RePack

Metro:Exodus

!!Акция!!

Alien_Rage

RePack

fifa19

RePack

Assassins Creed: Odyssey

RePack

NEED FOR SPEED™ PAYBACK

3 сезон

9 сезон

Бесстыжие 9 сезон

Все сериалы

все сериалы на PB.wtf

RePack

FAR CRY 5
Ребята, катастрофически не хватает 2730р. для оплаты серверов за МАЙ (всвязи с блокировками трафик упал в 3 раза), 1-2р., выручайте.
  

Шопоголик / Confessions of a Shopaholic (П.Дж. Хоган) [2009 г., Романтическая комедия, BDRip, DUB (Rus) + DUB (Ukr) + Оригинал] pb.wtf

Шопоголик через торрент pb.wtf

Размер: 2.19 GB | Добавлен: 6 лет 5 мес. назад | Торрент скачан:127 раз
Скачать  

10-01-2013 18:14 Шопоголик Скачать торрент  

Шопоголик / Confessions of a Shopaholic
«Это не лечится...»

Год выпуска: 2009
Страна: США
Жанр: Романтическая комедия
Продолжительность: 01:44:13
Перевод: Дубляж + Дубляж (Украинский) + Оригинал (Английский)

Режиссер: П.Дж. Хоган
Продюссер: Джерри Брукхаймер, Рональд М. Бозман, Софи Кинселла
Сценарий: Трэйси Джексон, Тим Фёрт, Кайла Элперт

Премьера в мире: 5 февраля 2009

В ролях: Айла Фишер, Хью Дэнси, Кристен Риттер, Джоан Кьюсак, Джон Гудмен, Джон Литгоу, Кристин Скотт Томас, Фред Армизен, Лесли Бибб, Линн Редгрейв

Описание: Молодая девушка, помешанная на шопинге и дорогой одежде, живет в состоянии войны между своим банковским лимитом и искушениями большого города. При этом по профессии она — журналист финансового издания, щедро раздающего советы по правильному управлению личным капиталом.

Качество: BDRip (Исходник Blu-ray)
Формат: AVI
Видео кодек: XviD
Аудио кодек: AC3
Видео: 720х304, 23,976 fps, 1827 kbps, 0.348 bit/pixel
Аудио#1: 48 kHz, AC3 5.1, 384.00 kbps / Дубляж
Аудио#2: 48 kHz, AC3 5.1, 384.00 kbps / Дубляж (Украинский)
Аудио#3: 48 kHz, AC3 5.1, 384.00 kbps / Оригинал (Английский)
Субтитры: Русский, Украинский, Английский / внешние
&
Общее
Полное имя : E:Фильмы МConfessions.of.a.Shopaholic.2009.BDRip.Rus.Ukr.EngConfessions.of.a.Shopaholic.2009.BDRip.avi
Формат : AVI
Формат/Информация : Audio Video Interleave
Профиль формата : OpenDML
Размер файла : 2,19 Гбайт
Продолжительность : 1 ч. 44 м.
Общий поток : 3002 Кбит/сек
Программа кодирования : VirtualDubModRus 1.5.10.2 (build 2542/release)
Библиотека кодирования : VirtualDubMod build 2542/release

Видео
Идентификатор : 0
Формат : MPEG-4 Visual
Профиль формата : Advanced Simple@L5
Параметр BVOP формата : 1
Параметр QPel формата : Нет
Параметр GMC формата : Без точки перехода
Параметр матрицы формата : Выборочная
Режим смешивания : Сжатый битовый поток
Идентификатор кодека : XVID
Идентификатор кодека/Подсказка : XviD
Продолжительность : 1 ч. 44 м.
Битрейт : 1827 Кбит/сек
Ширина : 720 пикселей
Высота : 304 пикселя
Соотношение сторон : 2,35:1
Частота кадров : 23,976 кадра/сек
Цветовое пространство : YUV
Субдискретизация насыщенности : 4:2:0
Битовая глубина : 8 бит
Тип развёртки : Прогрессивная
Метод сжатия : С потерями
Бит/(Пиксели*Кадры) : 0.348
Размер потока : 1,33 Гбайт (61%)
Библиотека кодирования : XviD 65

Аудио #1
Идентификатор : 1
Формат : AC-3
Формат/Информация : Audio Coding 3
Расширение режима : CM (complete main)
Параметр Endianness формата : Big
Идентификатор кодека : 2000
Продолжительность : 1 ч. 44 м.
Вид битрейта : Постоянный
Битрейт : 384 Кбит/сек
Каналы : 6 каналов
Расположение каналов : Front: L C R, Side: L R, LFE
Частота : 48,0 КГц
Битовая глубина : 16 бит
Метод сжатия : С потерями
Размер потока : 286 Мбайт (13%)
Выравнивание : Разделение по промежуткам
Продолжительность промежутка : 42 мс. (1,00 видеокадр)
Время предзагрузки промежутка : 500 мс.
Заголовок : Дубляж (Русский)

Аудио #2
Идентификатор : 2
Формат : AC-3
Формат/Информация : Audio Coding 3
Расширение режима : CM (complete main)
Параметр Endianness формата : Big
Идентификатор кодека : 2000
Продолжительность : 1 ч. 44 м.
Вид битрейта : Постоянный
Битрейт : 384 Кбит/сек
Каналы : 6 каналов
Расположение каналов : Front: L C R, Side: L R, LFE
Частота : 48,0 КГц
Битовая глубина : 16 бит
Метод сжатия : С потерями
Размер потока : 286 Мбайт (13%)
Выравнивание : Разделение по промежуткам
Продолжительность промежутка : 42 мс. (1,00 видеокадр)
Время предзагрузки промежутка : 500 мс.
Заголовок : Дубляж (Украинский)

Аудио #3
Идентификатор : 3
Формат : AC-3
Формат/Информация : Audio Coding 3
Расширение режима : CM (complete main)
Параметр Endianness формата : Big
Идентификатор кодека : 2000
Продолжительность : 1 ч. 44 м.
Вид битрейта : Постоянный
Битрейт : 384 Кбит/сек
Каналы : 6 каналов
Расположение каналов : Front: L C R, Side: L R, LFE
Частота : 48,0 КГц
Битовая глубина : 16 бит
Метод сжатия : С потерями
Размер потока : 286 Мбайт (13%)
Выравнивание : Разделение по промежуткам
Продолжительность промежутка : 42 мс. (1,00 видеокадр)
Время предзагрузки промежутка : 500 мс.
Заголовок : Оригинал (Английский)


Шопоголик скачать торрент


pb.wtf



Скачать Шопоголик через торрент http://i51.fastpic.ru/big/2013/0110/70/ae7678f492c2bf4b48fea722bb46f570.png Скачать фильм Шопоголик через торрент бесплантно в хорошем качестве Описание: Молодая девушка, помешанная на шопинге и дорогой одежде, живет в состоянии войны между своим банковским лимитом и искушениями ... 5 10 1
Info! Золотая раздача, скачанное не засчитывается.
Торрент: Зарегистрирован [2013-01-10 18:14] · скачан: 127 раз
Статус: √ проверено
Размер: 2.19 GB
Как cкачать? Как скачать Шопоголик через торрент | qTorrent


>> Регистрируемся здесь <<






Отзывы и комментарии о схеме читаем и пишем здесь: ---> Отзывы и комментарии о схеме

Новые благодарочки в телеграм довольных пользователей:
скриншот   скриншот   скриншот   скриншот   скриншот

11-01-2013 06:42 Шопоголик Скачать торрент  

Хороший фильм :good:pb.wtf



    Дорогой пользователь! Огромная просьба, поблагодарите релизера, оцените раздачу и оставьте свои комментарий, если Вы скачали Шопоголик через торрент бесплатно! Внесите свою лепту в развитие PiratBit!
    Комментировать посты могут только пользователи прошедшие не сложную регистрацию
    Показать сообщения:    

    Шопоголик через торрент
    Скачать бесплатно Шопоголик
    Шопоголик скачать торрент
    Шопоголик смотреть онлайн
    Cкачать фильм Шопоголик бесплатно
    Шопоголик скачать торрент в хорошем качестве
    Шопоголик смотреть онлайн бесплатно в хорошем качестве


    Вы не можете начинать темы
    Вы не можете отвечать на сообщения
    Вы не можете редактировать свои сообщения
    Вы не можете удалять свои сообщения
    Вы не можете голосовать в опросах
    Вы не можете прикреплять файлы к сообщениям
    Вы можете скачивать файлы