1 сезон

3 сезон

iTunes

1

iTunes

MVO

iTunes

13

1 сезон

RePack

30

Deluxe

pack

Лицензия

ВАЖНО

ИГРА 18+

pack

RePack

MK11

RePack

jed

RePack

fifa19

RePack

RDR2

RePack

NEED FOR SPEED™ PAYBACK

4 сезон

9 сезон

Бесстыжие 9 сезон

Все сериалы

все сериалы на PB.wtf

RePack

FAR CRY 5

Anonymous, добрый вечер, мы катастрофически не успеваем собрать деньги на оплату серверов, помогите нам пожалуйста 5,10,15р., для нас важна любая помощь . В качестве благодарности мы отключим Вам всю рекламу на сайте (укажите свой ник в строку Ваше имя)!

×
  
Magnet ссылка

Когда Санта упал на Землю / Als der Weihnachtsmann vom Himmel fiel (Оливер Дикманн / Oliver Dieckmann) [2011, фэнтези, комедия, семейный, DVD9] R5 pb.wtf

Когда Санта упал на Землю через торрент pb.wtf

Размер: 6.16 GB | Добавлен: 8 лет 6 мес. назад | Торрент скачан:30 раз
Скачать  

10-01-2013 18:51 Когда Санта упал на Землю Скачать торрент  


Когда Санта упал на Землю / Als der Weihnachtsmann vom Himmel fiel
Страна: Германия
Студия: Bavaria Film, Kiddinx Filmproduktion, Wega Film, Zweites Deutsches Fernsehen (ZDF)
Жанр: фэнтези, комедия, семейный
Год выпуска: 2011
Мировая премьера: 24 ноября 2011
Дата выхода DVD: 12 декабря 2012
Продолжительность: 01:43:00
Перевод: Профессиональный (многоголосый закадровый) [Лицензия]
Cубтитры: нет
Оригинальная аудиодорожка: нет
Режиссер: Оливер Дикманн / Oliver Dieckmann
В ролях: Александр Шеер, Ной Краус, Ядеа, Джессика Шварц, Фриц Карл, Фолькер Лехтенбринк, Кристин Урспрух, Чарли Хюбнер, Грушенка Стивенс
Описание: Маленькому Бену, переехавшему из большого города в маленький городок накануне Рождества, очень грустно: папа потерял работу, мама занята открытием своего кондитерского магазина, да и в новой школе ему на особо рады. И вот, как-то в грозу, с неба падает Санта-Клаус, и жизнь Бена переворачивается с ног на голову. Так начинаются волшебные рождественские приключения Бена и его одноклассницы Шарлотты…
Бонусы: нет

Релиз группы:
Качество: DVD9 R5
Формат: DVD-Video
Видео кодек: MPEG2
Аудио кодек: AC3
Видео: PAL 16:9 (720x576(0.757)) MPEG Video, 25,000 кадр/сек, 7850 Кбит/сек
Аудио: Russian (Dolby AC3, 6 ch) 256 Кбит/сек, 48,0 КГц



Title: Kogda.Santa.upal.na.Zemlju.2011.DVD9
Size: 6.16 Gb ( 6 460 970,00 KBytes ) - DVD-9
Enabled regions: 1, 2, 3, 4, 5, 6, 7, 8

VTS_01 :
Play Length: 00:00:10
Video: PAL 16:9 (720x576) VBR, Auto Pan&Scan, Auto Letterboxed

VTS_02 :
Play Length: 00:00:06
Video: PAL 16:9 (720x576) VBR, Auto Pan&Scan, Auto Letterboxed

VTS_03 :
Play Length: 01:43:00
Video: PAL 16:9 (720x576) VBR, Auto Pan&Scan, Auto Letterboxed
Audio:
Not specified (Dolby AC3, 6 ch)

* Menus Information *

VIDEO_TS Menu
Video:
PAL 16:9 (720x576) VBR
Auto Pan&Scan, Auto Letterboxed
English Language Unit :
Title Menu

VTS_01 Menu
Video:
PAL 16:9 (720x576) VBR
Auto Pan&Scan, Auto Letterboxed
Audio:
Not specified (Dolby AC3, 6 ch)
English Language Unit :
Root Menu

VTS_02 Menu
Video:
PAL 4:3 (720x576) VBR
English Language Unit :
Root Menu

VTS_03 Menu
Video:
PAL 4:3 (720x576) VBR
English Language Unit :
Root Menu
Общее
Полное имя : J:Новинки 2012Kogda.Santa.upal.na.Zemlju.2011.DVD9VIDEO_TSVTS_03_1.VOB
Формат : MPEG-PS
Размер файла : 1024 Мбайт
Продолжительность : 17 м.
Режим общего битрейта : Переменный
Общий поток : 8271 Кбит/сек

Видео
Идентификатор : 224 (0xE0)
Формат : MPEG Video
Версия формата : Version 2
Профиль формата : Main@Main
Параметр BVOP формата : Да
Параметр матрицы формата : Выборочная
Параметр GOP формата : Variable
Продолжительность : 17 м.
Вид битрейта : Переменный
Битрейт : 7850 Кбит/сек
Максимальный битрейт : 9000 Кбит/сек
Ширина : 720 пикселей
Высота : 576 пикселей
Соотношение сторон : 16:9
Частота кадров : 25,000 кадров/сек
Стандарт вещания : PAL
Цветовое пространство : YUV
Субдискретизация насыщенности : 4:2:0
Битовая глубина : 8 бит
Тип развёртки : Чересстрочная
Порядок развёртки : Верхнее поле первое
Метод сжатия : С потерями
Бит/(Пиксели*Кадры) : 0.757
Размер потока : 972 Мбайт (95%)

Аудио
Идентификатор : 189 (0xBD)-128 (0x80)
Формат : AC-3
Формат/Информация : Audio Coding 3
Расширение режима : CM (complete main)
Параметр Endianness формата : Big
Режим смешивания : DVD-Video
Продолжительность : 17 м.
Вид битрейта : Постоянный
Битрейт : 256 Кбит/сек
Каналы : 6 каналов
Расположение каналов : Front: L C R, Side: L R, LFE
Частота : 48,0 КГц
Битовая глубина : 16 бит
Метод сжатия : С потерями
Размер потока : 31,7 Мбайт (3%)










pb.wtf



Скачать Когда Санта упал на Землю через торрент http://i51.fastpic.ru/big/2013/0110/9b/837db9809807e790061ae56be76f7c9b.jpg Скачать фильм Когда Санта упал на Землю через торрент бесплантно в хорошем качестве Описание: Маленькому Бену, переехавшему из большого города в маленький городок накануне Рождества, очень грустно: папа потерял работу, мама ... 5 10 1
Info! Золотая раздача, скачанное не засчитывается.
Торрент: Зарегистрирован [2013-01-10 18:51] · скачан: 30 раз
Статус: √ проверено
Размер: 6.16 GB
Как cкачать? Как скачать Когда Санта упал на Землю через торрент | UTorrent

28-11-2019 20:33  

Отключить всю рекламу на сайте

    Дорогой пользователь! Огромная просьба, поблагодарите релизера, оцените раздачу и оставьте свои комментарий, если Вы скачали Когда Санта упал на Землю через торрент бесплатно! Внесите свою лепту в развитие PiratBit!
    Комментировать посты могут только пользователи прошедшие не сложную регистрацию
    Показать сообщения:    

    Когда Санта упал на Землю через торрент
    Скачать бесплатно Когда Санта упал на Землю
    Когда Санта упал на Землю скачать торрент
    Когда Санта упал на Землю смотреть онлайн
    Cкачать фильм Когда Санта упал на Землю бесплатно
    Когда Санта упал на Землю скачать торрент в хорошем качестве
    Когда Санта упал на Землю смотреть онлайн бесплатно в хорошем качестве


    Вы не можете начинать темы
    Вы не можете отвечать на сообщения
    Вы не можете редактировать свои сообщения
    Вы не можете удалять свои сообщения
    Вы не можете голосовать в опросах
    Вы не можете прикреплять файлы к сообщениям
    Вы можете скачивать файлы