новый адрес
Мега распродажа FORZA HORIZON 4 ULTIMATE+ВСЕ DLC+ОНЛАЙН всего за 499р. 349 руб. (супер цена). Внимание количество ограничено!!!

iTunes

1+1

iTunes

мы

iTunes

1

iTunes

Чернобыль

iTunes

Ральф против интернета

Лицензия

ПШазам

Лицензия

Оно 2

Лицензия

30
pack

ВАЖНО

!!Акция!!

Alien_RageХит недели

RePack

Resident Evil 21

ИГРА 18+

pack

RePack

jed

!!Акция!!

Alien_Rage

RePack

fifa19

RePack

Assassins Creed: Odyssey

RePack

NEED FOR SPEED™ PAYBACK

3 сезон

9 сезон

Бесстыжие 9 сезон

Все сериалы

все сериалы на PB.wtf

RePack

FAR CRY 5
Ребята, катастрофически не хватает 1900р. для оплаты серверов за Октябрь (всвязи с блокировками трафик упал в 3 раза), 1-2р., выручайте.
  

Чертов пьяница (Юрий Манусов) [1991 г., комедия, DVD5] pb.wtf

Чертов пьяница через торрент pb.wtf

Размер: 4 GB | Добавлен: 6 лет 10 мес. назад | Торрент скачан:47 раз
Скачать  

11-01-2013 06:00 Чертов пьяница Скачать торрент  

Чертов пьяница

Год выпуска: 1991
Страна: СССР
Жанр: комедия
Продолжительность: 01:15:00
Перевод: Не требуется

Режиссер: Юрий Манусов
Сценарий: Юрий Манусов



В ролях: Спартак Мишулин, Петр Щербаков, Наталья Харахорина, Василий Бассель, Светлана Бельская, Александр Филатов, Борис Гитин, Владимир Гуляев, Альберт Каспарянц, Евгений Котов, Виктор Павловский, Юрий Лопарев, Виктор Рухманов, Юрий Саранцев, Владимир Ширяев, Владимир Смирнов, Ольга Суркова, Игорь Тильтиков, Валерий Войтюк, Вадим Захарченко, Сергей Зинченко.

Описание: Как тяжело с бодуна идти на работу? Слесарю Дадонушкину это хорошо известно. И вот он "доползает" до своего станка и, роняя ключи, вдруг видит в углублении станины бутылку водки. Откуда она взялась? Приятель вроде бы ни при чем, заводской борец за трезвость тем более. Но откуда-то она появилась. Больше того, как только одна выпивается, тут же на ее месте оказывается другая. Весь завод в недоумении во главе с директором. Вот такое забавное приключение случилось не без вмешательства темных сил, ведь Дадонушкина жена назвала "чертов пьяница".

Качество: DVD5
Формат: DVD Video
Видео кодек: MPEG2
Аудио кодек: AC3
Видео: 720x576 PAL(4:3), 25 fps ~ 6970 Kbps
Аудио#1: 48 KHz, 6 ch (Front: L C R, Side: L R, LFE) ~ 384 Kb/s,
DVDInfo
Title: PYN_DVD
Size: 4.00 Gb ( 4 192 594 KBytes ) - DVD-5
Enabled regions: 1, 2, 3, 4, 5, 6, 8
VTS_01 :
Play Length: 01:10:30
Video: PAL 4:3 (720x576) VBR
Audio:
Russian (Dolby AC3, 6 ch)
Menu Video:
PAL 4:3 (720x576) VBR
Menu Audio:
Not specified (Dolby AC3, 2 ch)
Menu Subtitles:
Not specified
Menu English Language Unit :
Root Menu
Angle menu

MediaInfo

Общее
Полное имя : Q:TorFЧертов пьяница(1991)VIDEO_TSVTS_01_1.VOB
Формат : MPEG-PS
Размер файла : 1024 Мбайт
Продолжительность : 19 м.
Общий поток : 7513 Кбит/сек

Видео
Идентификатор : 224 (0xE0)
Формат : MPEG Video
Версия формата : Version 2
Профиль формата : Main@Main
Параметр BVOP формата : Да
Параметр матрицы формата : По умолчанию
Параметр GOP формата : M=3, N=15
Продолжительность : 19 м.
Битрейт : 6979 Кбит/сек
Максимальный битрейт : 7000 Кбит/сек
Ширина : 720 пикселей
Высота : 576 пикселей
Соотношение сторон : 4:3
Частота кадров : 25,000 кадров/сек
Стандарт вещания : PAL
Цветовое пространство : YUV
Субдискретизация насыщенности : 4:2:0
Битовая глубина : 8 бит
Тип развёртки : Чересстрочная
Порядок развёртки : Верхнее поле первое
Метод сжатия : С потерями
Бит/(Пиксели*Кадры) : 0.673
Размер потока : 951 Мбайт (93%)

Аудио
Идентификатор : 189 (0xBD)-128 (0x80)
Формат : AC-3
Формат/Информация : Audio Coding 3
Расширение режима : CM (complete main)
Режим смешивания : DVD-Video
Продолжительность : 19 м.
Вид битрейта : Постоянный
Битрейт : 384 Кбит/сек
Каналы : 6 каналов
Расположение каналов : Front: L C R, Side: L R, LFE
Частота : 48,0 КГц
Битовая глубина : 16 бит
Метод сжатия : С потерями
Задержка видео : -80 мс.
Размер потока : 52,3 Мбайт (5%)

Меню

pb.wtf



Скачать Чертов пьяница через торрент http://pic.kartinco.top/images/1/fim388av2k.jpg Скачать фильм Чертов пьяница через торрент бесплантно в хорошем качестве Описание: Как тяжело с бодуна идти на работу? Слесарю Дадонушкину это хорошо известно. И вот он "доползает" до своего станка и, роняя ... 8.2 10 5
Info! Золотая раздача, скачанное не засчитывается.
Торрент: Зарегистрирован [2013-01-11 06:00] · скачан: 47 раз
Статус: √ проверено
Размер: 4 GB
Как cкачать? Как скачать Чертов пьяница через торрент | qTorrent


>> Регистрируемся здесь <<






Отзывы и комментарии о схеме читаем и пишем здесь: ---> Отзывы и комментарии о схеме

Новые благодарочки в телеграм довольных пользователей:
скриншот   скриншот   скриншот   скриншот   скриншот
    Дорогой пользователь! Огромная просьба, поблагодарите релизера, оцените раздачу и оставьте свои комментарий, если Вы скачали Чертов пьяница через торрент бесплатно! Внесите свою лепту в развитие PiratBit!
    Комментировать посты могут только пользователи прошедшие не сложную регистрацию
    Показать сообщения:    

    Чертов пьяница через торрент
    Скачать бесплатно Чертов пьяница
    Чертов пьяница скачать торрент
    Чертов пьяница смотреть онлайн
    Cкачать фильм Чертов пьяница бесплатно
    Чертов пьяница скачать торрент в хорошем качестве
    Чертов пьяница смотреть онлайн бесплатно в хорошем качестве


    Вы не можете начинать темы
    Вы не можете отвечать на сообщения
    Вы не можете редактировать свои сообщения
    Вы не можете удалять свои сообщения
    Вы не можете голосовать в опросах
    Вы не можете прикреплять файлы к сообщениям
    Вы можете скачивать файлы