Мега распродажа FORZA HORIZON 4 ULTIMATE+ВСЕ DLC+ОНЛАЙН всего за 499р. 349 руб. (супер цена). Внимание количество ограничено!!!

iTunes

1+1

iTunes

мы

iTunes

1

1 сезон

Чернобыль

1 сезон

Ральф против интернета

Лицензия

ПШазам

8 сезон

Игра престолов

Лицензия

30
pack

ВАЖНО

!!Акция!!

Alien_RageХит недели

RePack

Resident Evil 21

ИГРА 18+

pack

RePack

Metro:Exodus

!!Акция!!

Alien_Rage

RePack

fifa19

RePack

Assassins Creed: Odyssey

RePack

NEED FOR SPEED™ PAYBACK

3 сезон

9 сезон

Бесстыжие 9 сезон

Все сериалы

все сериалы на PB.wtf

RePack

FAR CRY 5
Ребята, катастрофически не хватает 2730р. для оплаты серверов за ИЮНЬ (всвязи с блокировками трафик упал в 3 раза), 1-2р., выручайте.
  

Где моя тачка, чувак? / Dude, Where's My Car? (Дэнни Лейнер) [2000 г., фантастика, комедия, детектив, BDRip, DUB (Rus) + MVO (Ukr) + AVO (Живов) + Оригинал] pb.wtf

Где моя тачка, чувак? через торрент pb.wtf

Размер: 2.05 GB | Добавлен: 6 лет 6 мес. назад | Торрент скачан:255 раз
Скачать  

11-01-2013 10:23 Где моя тачка, чувак? Скачать торрент  

Где моя тачка, чувак? / Dude, Where's My Car?
«Ночь они не могут вспомнить, но день, они никогда не забудут».

Год выпуска: 2000
Страна: США
Жанр: фантастика, комедия, детектив
Продолжительность: 01:23:04
Перевод: Дубляж + Профессиональный (многоголосый закадровый) - (Украинский - Новый Канал) + Оригинал (Английский) + Авторский (Живов) / внешняя

Режиссер: Дэнни Лейнер
Продюссер: Бродерик Джонсон, Эндрю А. Косов, Джил Неттер
Сценарий: Филип Старк

Бюджет: $13 000 000
Премьера в мире: 10 декабря 2000

В ролях: Эштон Катчер, Шонн Уильям Скотт, Дженнифер Гарнер, Марла Соколофф, Кристи Суонсон, Дэвид Хермэн, Хэл Спаркс, Чарли О'Коннелл

Описание: Для двух придурковатых приятелей ночь прошла просто великолепно. Одна проблема — они ничего не могут вспомнить, в том числе и место, где они оставили машину. Единственное, что они точно знают — в холодильнике лежит годовой запас пудинга, а их подружки дуются из-за того, что они забыли о годовщине. Для того чтобы наладить отношения с ними, друзьям надо найти подарки, подготовленные как раз для этого случая. Но это не легко — они находятся в машине. Друзья решают вернуться и выяснить, что они делали вчера? — возможно, это их выведет к пропавшей машине. И это путешествие круто изменит их жизнь.

Качество: BDRip (Исходник BD-Remux)
Формат: AVI
Видео кодек: XviD
Аудио кодек: AC3
Видео: 720х384, 23,976 fps, 1917 kbps, 0.289 bit/pixel
Аудио#1: 48 kHz, AC3 5.1, 384.00 kbps / Дубляж
Аудио#2: 48 kHz, AC3 5.1, 384.00 kbps / Профессиональный (многоголосый закадровый) - (Украинский - Новый Канал)
Аудио#3: 48 kHz, AC3 5.1, 384.00 kbps / Оригинал (Английский)
Аудио#4: 48 kHz, AC3 5.1, 448.00 kbps / Авторский (Живов) / внешняя
Субтитры: Русский, Английский / внешние
&
Общее
Полное имя : E:Фильмы МDude, Wheres My Car.2000.BDRip.2xRus.Ukr.EngDude, Wheres My Car.2000.BDRip.avi
Формат : AVI
Формат/Информация : Audio Video Interleave
Размер файла : 1,79 Гбайт
Продолжительность : 1 ч. 23 м.
Общий поток : 3087 Кбит/сек
Программа кодирования : VirtualDubModRus 1.5.10.2 (build 2542/release)
Библиотека кодирования : VirtualDubMod build 2542/release

Видео
Идентификатор : 0
Формат : MPEG-4 Visual
Профиль формата : Advanced Simple@L5
Параметр BVOP формата : 1
Параметр QPel формата : Нет
Параметр GMC формата : Без точки перехода
Параметр матрицы формата : Выборочная
Режим смешивания : Сжатый битовый поток
Идентификатор кодека : XVID
Идентификатор кодека/Подсказка : XviD
Продолжительность : 1 ч. 23 м.
Битрейт : 1917 Кбит/сек
Ширина : 720 пикселей
Высота : 384 пикселя
Соотношение сторон : 1,85:1
Частота кадров : 23,976 кадра/сек
Цветовое пространство : YUV
Субдискретизация насыщенности : 4:2:0
Битовая глубина : 8 бит
Тип развёртки : Прогрессивная
Метод сжатия : С потерями
Бит/(Пиксели*Кадры) : 0.289
Размер потока : 1,11 Гбайт (62%)
Библиотека кодирования : XviD 65

Аудио #1
Идентификатор : 1
Формат : AC-3
Формат/Информация : Audio Coding 3
Расширение режима : CM (complete main)
Параметр Endianness формата : Big
Идентификатор кодека : 2000
Продолжительность : 1 ч. 23 м.
Вид битрейта : Постоянный
Битрейт : 384 Кбит/сек
Каналы : 6 каналов
Расположение каналов : Front: L C R, Side: L R, LFE
Частота : 48,0 КГц
Битовая глубина : 16 бит
Метод сжатия : С потерями
Размер потока : 228 Мбайт (12%)
Выравнивание : Разделение по промежуткам
Продолжительность промежутка : 42 мс. (1,00 видеокадр)
Время предзагрузки промежутка : 500 мс.
Заголовок : Дубляж

Аудио #2
Идентификатор : 2
Формат : AC-3
Формат/Информация : Audio Coding 3
Расширение режима : CM (complete main)
Параметр Endianness формата : Big
Идентификатор кодека : 2000
Продолжительность : 1 ч. 23 м.
Вид битрейта : Постоянный
Битрейт : 384 Кбит/сек
Каналы : 6 каналов
Расположение каналов : Front: L C R, Side: L R, LFE
Частота : 48,0 КГц
Битовая глубина : 16 бит
Метод сжатия : С потерями
Размер потока : 228 Мбайт (12%)
Выравнивание : Разделение по промежуткам
Продолжительность промежутка : 42 мс. (1,00 видеокадр)
Время предзагрузки промежутка : 500 мс.
Заголовок : Профессиональный (многоголосый закадровый) - (Украинский - Новый Канал)

Аудио #3
Идентификатор : 3
Формат : AC-3
Формат/Информация : Audio Coding 3
Расширение режима : CM (complete main)
Параметр Endianness формата : Big
Идентификатор кодека : 2000
Продолжительность : 1 ч. 23 м.
Вид битрейта : Постоянный
Битрейт : 384 Кбит/сек
Каналы : 6 каналов
Расположение каналов : Front: L C R, Side: L R, LFE
Частота : 48,0 КГц
Битовая глубина : 16 бит
Метод сжатия : С потерями
Размер потока : 228 Мбайт (12%)
Выравнивание : Разделение по промежуткам
Продолжительность промежутка : 42 мс. (1,00 видеокадр)
Время предзагрузки промежутка : 500 мс.
Заголовок : Оригинал (Английский)


Где моя тачка, чувак? скачать торрент


pb.wtf



Скачать Где моя тачка, чувак? через торрент http://i51.fastpic.ru/big/2013/0111/00/aace848c64af5d9435fbae589adc5200.png Скачать фильм Где моя тачка, чувак? через торрент бесплантно в хорошем качестве Описание: Для двух придурковатых приятелей ночь прошла просто великолепно. Одна проблема — они ничего не могут вспомнить, в том числе и ... 10 10 2
Info! Золотая раздача, скачанное не засчитывается.
Торрент: Зарегистрирован [2013-01-11 10:23] · скачан: 255 раз
Статус: √ проверено
Размер: 2.05 GB
Как cкачать? Как скачать Где моя тачка, чувак? через торрент | qTorrent


>> Регистрируемся здесь <<






Отзывы и комментарии о схеме читаем и пишем здесь: ---> Отзывы и комментарии о схеме

Новые благодарочки в телеграм довольных пользователей:
скриншот   скриншот   скриншот   скриншот   скриншот

11-01-2013 10:37 Где моя тачка, чувак? Скачать торрент  

Клёвый фильм! =)pb.wtf



11-01-2013 10:47 Где моя тачка, чувак? Скачать торрент  

Очень класный фильм :)pb.wtf



11-01-2013 11:55 Где моя тачка, чувак? Скачать торрент  

Улёт,Чувак!!!Отпадный фильм pb.wtf



    Дорогой пользователь! Огромная просьба, поблагодарите релизера, оцените раздачу и оставьте свои комментарий, если Вы скачали Где моя тачка, чувак? через торрент бесплатно! Внесите свою лепту в развитие PiratBit!
    Комментировать посты могут только пользователи прошедшие не сложную регистрацию
    Показать сообщения:    

    Где моя тачка, чувак? через торрент
    Скачать бесплатно Где моя тачка, чувак?
    Где моя тачка, чувак? скачать торрент
    Где моя тачка, чувак? смотреть онлайн
    Cкачать фильм Где моя тачка, чувак? бесплатно
    Где моя тачка, чувак? скачать торрент в хорошем качестве
    Где моя тачка, чувак? смотреть онлайн бесплатно в хорошем качестве


    Вы не можете начинать темы
    Вы не можете отвечать на сообщения
    Вы не можете редактировать свои сообщения
    Вы не можете удалять свои сообщения
    Вы не можете голосовать в опросах
    Вы не можете прикреплять файлы к сообщениям
    Вы можете скачивать файлы