Мега распродажа FORZA HORIZON 4 ULTIMATE+ВСЕ DLC+ОНЛАЙН всего за 499р. 349 руб. (супер цена). Внимание количество ограничено!!!

Лицензия

30

iTunes

мы

iTunes

1

1 сезон

Чернобыль

1 сезон

Ральф против интернета

MVO

Покемон. Детектив Пикачу

8 сезон

Игра престолов

iTunes

1+1

ИГРА 18+

pack

ВАЖНО

!!Акция!!

Alien_RageХит недели

RePack

Resident Evil 21
pack

RePack

Metro:Exodus

!!Акция!!

Alien_Rage

RePack

fifa19

RePack

Assassins Creed: Odyssey

RePack

NEED FOR SPEED™ PAYBACK

3 сезон

9 сезон

Бесстыжие 9 сезон

Все сериалы

все сериалы на PB.wtf

RePack

FAR CRY 5
Ребята, катастрофически не хватает 2730р. для оплаты серверов за МАЙ (всвязи с блокировками трафик упал в 3 раза), 1-2р., выручайте.
  

Отдел 13 / Diamant 13 (Жиль Беа) [2009 г., боевик, триллер, криминал, HDRip, MVO, лицензия] pb.wtf

Отдел 13 через торрент pb.wtf

Размер: 1.37 GB | Добавлен: 6 лет 5 мес. назад | Торрент скачан:114 раз
Скачать  

12-01-2013 12:34 Отдел 13 Скачать торрент  

Отдел 13 / Diamant 13

Год выпуска: 2009
Страна: Франция
Жанр: боевик, триллер, криминал
Продолжительность: 01:41:58
Перевод: Профессиональный многоголосый, Лицензия

Режиссер: Жиль Беа
Продюссер: Шарль Жийибер, Марин Кармиц, Натанаэль Кармиц
Сценарий: Жиль Беа, Оливье Маршаль, Хью Паган

Мировой рейтинг IMDB 5.10 (805)


В ролях: Жерар Депардье, Оливье Маршаль, Азия Ардженто, Анн Косенс, Айса Майга, Катрин Маршаль, Эрик Деор, Фредерик Френе, Жан-Франсуа Фолфф, Патрик Хаштерт

Описание: Полицейский начинает охоту на своего лучшего друга, который стал одним из самых крупных торговцев наркотиками города...

Качество: HDRip
Формат: AVI
Видео кодек: XviD
Аудио кодек: AC3
Видео: MPEG-4 XviD, 1526 Кбит/с, 704х304( 2.35:1), 24.000 кадр/с
Аудио#1: Русский (AC3, 6ch, 384 Кбит/с, 48.0 КГц, 16 бит)

Общее
Полное имя : E:Otdel.13.2009.P.avi
Формат : AVI
Формат/Информация : Audio Video Interleave
Размер файла : 1,37 Гбайт
Продолжительность : 1 ч. 41 м.
Общий поток : 1919 Кбит/сек
Программа кодирования : VirtualDubMod 1.5.10.2 (build 2540/release)
Библиотека кодирования : VirtualDubMod build 2540/release

Видео
Идентификатор : 0
Формат : MPEG-4 Visual
Профиль формата : Advanced Simple@L5
Параметр BVOP формата : 2
Параметр QPel формата : Нет
Параметр GMC формата : Без точки перехода
Параметр матрицы формата : Default (MPEG)
Режим смешивания : Сжатый битовый поток
Идентификатор кодека : XVID
Идентификатор кодека/Подсказка : XviD
Продолжительность : 1 ч. 41 м.
Битрейт : 1450 Кбит/сек
Ширина : 704 пикселя
Высота : 304 пикселя
Соотношение сторон : 2,35:1
Частота кадров : 24,000 кадра/сек
Цветовое пространство : YUV
Субдискретизация насыщенности : 4:2:0
Битовая глубина : 8 бит
Тип развёртки : Прогрессивная
Метод сжатия : С потерями
Бит/(Пиксели*Кадры) : 0.282
Размер потока : 1,03 Гбайт (76%)
Библиотека кодирования : XviD 1.2.1 (UTC 2008-12-04)

Аудио
Идентификатор : 1
Формат : AC-3
Формат/Информация : Audio Coding 3
Расширение режима : CM (complete main)
Параметр Endianness формата : Big
Идентификатор кодека : 2000
Продолжительность : 1 ч. 41 м.
Вид битрейта : Постоянный
Битрейт : 384 Кбит/сек
Каналы : 6 каналов
Расположение каналов : Front: L C R, Side: L R, LFE
Частота : 48,0 КГц
Битовая глубина : 16 бит
Метод сжатия : С потерями
Задержка видео : 5 с. 0 мс.
Размер потока : 280 Мбайт (20%)
Выравнивание : Разделение по промежуткам


Отдел 13 скачать торрент


pb.wtf



Скачать Отдел 13 через торрент http://i52.fastpic.ru/big/2013/0112/58/40c1643b8edf488c58fc2509f72c5558.jpg Скачать фильм Отдел 13 через торрент бесплантно в хорошем качестве Описание: Полицейский начинает охоту на своего лучшего друга, который стал одним из самых крупных торговцев наркотиками ... 9 10 1
Info! Золотая раздача, скачанное не засчитывается.
Торрент: Зарегистрирован [2013-01-12 12:34] · скачан: 114 раз
Статус: √ проверено
Размер: 1.37 GB
Как cкачать? Как скачать Отдел 13 через торрент | qTorrent

% Раздел Тема Автор DL S | L
Фильмы 2009 [ 1.36 GB ] Тринадцатый отдел / Diamant 13 [2009 HDRip] paul08 Скачать
1 | 0
Фильмы 2009 [ 696 MB ] Тринадцатый отдел / Diamant 13 [2009 DVDRip PROPER] paul08 Скачать
1 | 0


>> Регистрируемся здесь <<






Отзывы и комментарии о схеме читаем и пишем здесь: ---> Отзывы и комментарии о схеме

Новые благодарочки в телеграм довольных пользователей:
скриншот   скриншот   скриншот   скриншот   скриншот
    Дорогой пользователь! Огромная просьба, поблагодарите релизера, оцените раздачу и оставьте свои комментарий, если Вы скачали Отдел 13 через торрент бесплатно! Внесите свою лепту в развитие PiratBit!
    Комментировать посты могут только пользователи прошедшие не сложную регистрацию
    Показать сообщения:    

    Отдел 13 через торрент
    Скачать бесплатно Отдел 13
    Отдел 13 скачать торрент
    Отдел 13 смотреть онлайн
    Cкачать фильм Отдел 13 бесплатно
    Отдел 13 скачать торрент в хорошем качестве
    Отдел 13 смотреть онлайн бесплатно в хорошем качестве


    Вы не можете начинать темы
    Вы не можете отвечать на сообщения
    Вы не можете редактировать свои сообщения
    Вы не можете удалять свои сообщения
    Вы не можете голосовать в опросах
    Вы не можете прикреплять файлы к сообщениям
    Вы можете скачивать файлы