Ссылка на приватное зеркало нашего сайта всего за 1$. Внимание количество ограничено!!!

2 сезон

iTunes

1 сезон

1

2 сезон

2 сезон

iTunes

1 сезон

RePack

30

Новинка

ВАЖНО

ИГРА 18+

pack

RePack

MK11
pack

Забери бонус

RePack

jed

!!Акция!!

Alien_Rage

RePack

fifa19

RePack

Assassins Creed: Odyssey

RePack

NEED FOR SPEED™ PAYBACK

4 сезон

9 сезон

Бесстыжие 9 сезон

Все сериалы

все сериалы на PB.wtf

RePack

FAR CRY 5
  

Полоса Без седла Братьев 1 / Band Of Bareback Brothers 1 (John Smith / Staxus) [2012 г.,Gay - орал, анал, групповой секс, униформа, большие члены, без презервативов, DVDRip, Оригинал] pb.wtf

Полоса Без седла Братьев 1 через торрент pb.wtf

Размер: 1.37 GB | Добавлен: 7 лет 10 мес. назад | Торрент скачан:507 раз
Скачать  

13-01-2013 02:19 Полоса Без седла Братьев 1 Скачать торрент  

Полоса Без седла Братьев 1 / Band Of Bareback Brothers 1

Год выпуска: 2012
Страна: Czech Republic
Жанр:Gay - орал, анал, групповой секс, униформа, большие члены, без презервативов
Продолжительность: 01:31:16
Перевод: Оригинал

Режиссер: John Smith / Staxus

В ролях: Kevin Ateah, Rudy Bodlak, Justin Conway, Jude Finch, Brad Fitt, Zack Hood, Marty Love, Rudy Valentino

Описание: Классические армейсские будни.

Доп. информация: Есть английские субтитры

Качество: DVDRip
Формат: AVI
Видео кодек: XviD
Аудио кодек: AC3
Видео: 720x416 (1.73:1), 29.970 fps, XviD build 50 ~1914 kbps avg, 0.21 bit/pixel
Аудио#1: 48 kHz, AC3 Dolby Digital, 2/0 (L,R) ch, ~224 kbps
Релиз от: сторонний ресурс





Общее
Полное имя : D:TorrentBand Of Bareback Brothers 1.avi
Формат : AVI
Формат/Информация : Audio Video Interleave
Размер файла : 1,37 Гбайт
Продолжительность : 1 ч. 31 м.
Общий поток : 2145 Кбит/сек
Программа кодирования : VirtualDubMod 1.5.4.1 (build 2178/release)
Библиотека кодирования : VirtualDubMod build 2178/release

Видео
Идентификатор : 0
Формат : MPEG-4 Visual
Профиль формата : Advanced Simple@L5
Параметр BVOP формата : 1
Параметр QPel формата : Нет
Параметр GMC формата : Без точки перехода
Параметр матрицы формата : Выборочная
Идентификатор кодека : XVID
Идентификатор кодека/Подсказка : XviD
Продолжительность : 1 ч. 31 м.
Битрейт : 1914 Кбит/сек
Ширина : 720 пикс.
Высота : 416 пикс.
Соотношение сторон : 16:9
Частота кадров : 29,970 кадр/сек
Цветовое пространство : YUV
Подвыборка цветности : 4:2:0
Битовая глубина : 8 бит
Тип развёртки : Прогрессивная
Метод сжатия : С потерями
Бит/(Пиксели*Кадры) : 0.213
Размер потока : 1,22 Гбайт (89%)
Библиотека кодирования : XviD 1.2.1 (UTC 2008-12-04)

Аудио
Идентификатор : 1
Формат : AC-3
Формат/Информация : Audio Coding 3
Расширение режима : CM (complete main)
Идентификатор кодека : 2000
Продолжительность : 1 ч. 31 м.
Вид битрейта : Постоянный
Битрейт : 224 Кбит/сек
Каналы : 2 канала
Расположение каналов : Front: L R
Частота : 48,0 КГц
Битовая глубина : 16 бит
Метод сжатия : С потерями
Размер потока : 146 Мбайт (10%)
Выравнивание : Разделение по промежуткам
Продолжительность промежутка : 96 мс. (2,88 видеокадра)
Время предзагрузки промежутка : 96 ms
Язык : English

pb.wtf



pack Скачать Полоса Без седла Братьев 1 через торрент http://pic.kartinco.top/images/1/iyj7lcwr6a.jpg Скачать фильм Полоса Без седла Братьев 1 через торрент бесплантно в хорошем качестве Описание: Классические армейсские будни.Доп. информация: Есть английские ... 8.4 10 14
Info! Золотая раздача, скачанное не засчитывается.
Торрент: Зарегистрирован [2013-01-13 02:19] · скачан: 507 раз
Статус: √ проверено
Размер: 1.37 GB
Как cкачать? Как скачать Полоса Без седла Братьев 1 через торрент | qTorrent

28-11-2019 20:33  

Отключить всю рекламу на сайте

    Дорогой пользователь! Огромная просьба, поблагодарите релизера, оцените раздачу и оставьте свои комментарий, если Вы скачали Полоса Без седла Братьев 1 через торрент бесплатно! Внесите свою лепту в развитие PiratBit!
    Комментировать посты могут только пользователи прошедшие не сложную регистрацию
    Показать сообщения:    

    Полоса Без седла Братьев 1 через торрент
    Скачать бесплатно Полоса Без седла Братьев 1
    Полоса Без седла Братьев 1 скачать торрент
    Полоса Без седла Братьев 1 смотреть онлайн
    Cкачать фильм Полоса Без седла Братьев 1 бесплатно
    Полоса Без седла Братьев 1 скачать торрент в хорошем качестве
    Полоса Без седла Братьев 1 смотреть онлайн бесплатно в хорошем качестве


    Вы не можете начинать темы
    Вы не можете отвечать на сообщения
    Вы не можете редактировать свои сообщения
    Вы не можете удалять свои сообщения
    Вы не можете голосовать в опросах
    Вы не можете прикреплять файлы к сообщениям
    Вы можете скачивать файлы